<?xml version="1.0" standalone="no"?>
<!DOCTYPE svg PUBLIC "-//W3C//DTD SVG 1.1//EN" "http://www.w3.org/Graphics/SVG/1.1/DTD/svg11.dtd" >
<svg xmlns="http://www.w3.org/2000/svg">
<metadata>
<json>
<![CDATA[
{
	"fontFamily": "Lloyds-Bank-International-icons",
	"majorVersion": 1,
	"minorVersion": 0,
	"designerURL": "http://www.foolproof.co.uk/",
	"designer": "Foolproof",
	"fontURL": "http://gutman.gufb.co.uk/",
	"copyright": "2016",
	"version": "Version 1.0",
	"fontId": "Lloyds-Bank-International-icons",
	"psName": "Lloyds-Bank-International-icons",
	"subFamily": "Regular",
	"fullName": "Lloyds-Bank-International-icons",
	"description": "Font generated by IcoMoon."
}
]]>
</json>
</metadata>
<defs>
<font id="Lloyds-Bank-International-icons" horiz-adv-x="1024">
<font-face units-per-em="1024" ascent="960" descent="-64" />
<missing-glyph horiz-adv-x="1024" />
<glyph unicode="&#x20;" horiz-adv-x="512" d="" />
<glyph unicode="&#xe900;" glyph-name="account" data-tags="account" d="M324.71 877.051h-324.708v-85.93h378.748l-54.039 85.93zM262.835 94.797c0 137.602 111.552 249.177 249.112 249.177 137.642 0 249.168-111.575 249.168-249.177h-498.28zM511.947 628.804c73.361 0 132.876-59.476 132.876-132.851 0-73.353-59.515-132.835-132.876-132.835-73.367 0-132.779 59.482-132.779 132.835 0 73.376 59.411 132.851 132.779 132.851zM0.001 741.371v-722.422h1023.998v722.422h-1023.998z" />
<glyph unicode="&#xe901;" glyph-name="apply" data-tags="apply" d="M787.889 960l-103.021-105.882 233.227-219.873 96.82 99.205-227.027 226.55zM623.819 791.161l-508.426-521.781-24.801-27.186-81.558-306.2 297.138 67.25 36.248 39.11 514.626 528.935-233.227 219.873zM115.393 206.9l164.547-164.547-212.242-47.695 47.695 212.242z" />
<glyph unicode="&#xe902;" glyph-name="arrows-circular" data-tags="arrows-circular" d="M755.134 960v-122.867h-536.844c-71.38 0-129.498-58.113-129.498-129.498v-276.418h171.884v234.032h494.458v-122.737l208.679 208.679-208.679 208.809zM763.325 464.762v-234.032h-494.458v122.867l-208.679-208.809 208.679-208.809v122.867h536.844c71.39 0 129.498 58.102 129.498 129.498v276.418h-171.884z" />
<glyph unicode="&#xe903;" glyph-name="ask-a-question" data-tags="ask-a-question" d="M0 849.352v-437.634h135.211v-97.803l139.268 97.803h42.817v251.493h351.099v186.141h-668.394zM365.972 618.141v-461.070h348.845l156.845-110.423v110.423h152.338v461.070h-658.028z" />
<glyph unicode="&#xe904;" glyph-name="at-sign" data-tags="at-sign" d="M518.945 603.122c-17.629 0-34.775-4.647-51.472-13.907-16.705-9.277-31.307-22.742-43.823-40.346-12.532-17.637-22.75-38.964-30.62-64.012-7.886-25.040-11.821-52.862-11.821-83.474 0-38.947 7.412-68.871 22.267-89.732 14.815-20.868 36.624-31.307 65.387-31.307 22.259 0 42.89 6.266 61.91 18.782 19.003 12.524 35.937 29.433 50.776 50.784 0.924 10.193 2.094 21.089 3.485 32.689 1.391 11.584 2.994 22.488 4.876 32.706l23.642 148.86c-10.217 10.193-23.2 19.249-38.947 27.135-15.788 7.861-34.342 11.821-55.66 11.821zM509.21 689.386c26.889 0 50.776-5.113 71.653-15.314 20.868-10.217 37.777-22.243 50.776-36.166l9.743 45.909h98.779l-27.83-161.385c-8.344-47.3-14.61-83.956-18.774-109.905-4.172-25.981-6.266-47.308-6.266-64.012 0-22.259 6.716-39.643 20.181-52.167 13.424-12.524 30.816-18.774 52.167-18.774 42.653 0 78.606 20.623 107.827 61.902 29.221 41.262 43.823 99.483 43.823 174.612 0 48.208-9.048 92.039-27.126 131.477-18.087 39.405-43.373 73.256-75.833 101.561-32.477 28.288-71.187 50.089-116.163 65.395-45.001 15.298-94.395 22.946-148.173 22.946-58.433 0-113.169-10.905-164.174-32.689-51.013-21.801-95.548-51.717-133.571-89.74-38.039-38.039-68.168-82.778-90.435-134.258-22.243-51.472-33.385-107.361-33.385-167.651 0-61.215 9.743-114.322 29.221-159.307 19.47-44.993 46.825-82.075 82.083-111.295 35.242-29.221 77.911-50.776 128-64.699 50.089-13.907 105.258-20.86 165.565-20.86 42.653 0 83.482 2.544 122.429 7.641 38.955 5.088 73.264 11.346 102.951 18.791l-23.642-98.787c-21.359-7.403-50.564-13.899-87.654-19.478-37.107-5.563-77.919-8.336-122.437-8.336-77.903 0-148.648 9.277-212.169 27.814-63.546 18.553-118.036 46.612-163.479 84.177-45.451 37.573-80.692 84.635-105.741 141.22-25.024 56.56-37.557 122.887-37.557 198.949 0 73.264 13.915 142.365 41.737 207.302 27.822 64.912 66.548 121.488 116.171 169.737 49.606 48.208 108.040 86.476 175.308 114.78 67.235 28.28 140.279 42.432 219.131 42.432 68.618 0 131.927-10.217 189.91-30.611 57.951-20.41 107.819-49.386 149.547-86.95 41.753-37.565 74.197-82.32 97.397-134.258 23.167-51.954 34.783-109.005 34.783-171.127 0-49.173-7.436-93.454-22.259-132.876-14.848-39.43-34.325-73.027-58.433-100.865-24.132-27.814-51.962-49.386-83.474-64.691-31.544-15.298-64.487-22.963-98.779-22.963-40.829 0-74.925 7.87-102.264 23.65-27.372 15.772-46.162 35.708-56.347 59.832-18.57-25.973-40.583-46.383-66.090-61.215-25.515-14.839-55.889-22.267-91.131-22.267-57.525 0-101.094 18.791-130.781 56.355s-44.51 85.077-44.51 142.602c0 38.031 5.555 74.655 16.688 109.921 11.134 35.233 27.135 66.532 48.003 93.904 20.868 27.347 46.122 49.148 75.817 65.387 29.679 16.222 62.613 24.353 98.787 24.353z" />
<glyph unicode="&#xe905;" glyph-name="banking-services" data-tags="banking-services" d="M510.65 960l-458.059-197.198v-62.316h22.667v-48.252h870.784v48.252h22.667v62.316l-458.059 197.198zM197.797 594.331v-448.858h89.772v448.858h-89.772zM467.111 594.331v-448.858h89.772v448.858h-89.772zM736.426 594.331v-448.858h89.772v448.858h-89.772zM108.025 85.626v-59.848h-59.848v-89.772h927.639v89.772h-59.848v59.848h-807.944z" />
<glyph unicode="&#xe906;" glyph-name="boiler" data-tags="boiler" d="M266.398 867.218v0zM511.976 959.928c-282.636 0-511.928-229.235-511.928-511.928 0-282.762 229.292-511.928 511.928-511.928 282.752 0 511.928 229.287 511.928 511.928 0 282.693-229.176 511.905-511.928 511.928zM511.976 864.613c230.083-0.052 416.613-186.544 416.613-416.613 0-230.182-186.53-416.613-416.613-416.613-230.131 0-416.613 186.431-416.613 416.613 0 230.069 186.483 416.613 416.613 416.613zM738.853 681.59l-266.704-164.676c-0.844-0.537-1.865-0.773-2.685-1.342l-1.79-1.342v-0.447c-18.191-13.566-29.982-35.103-29.982-59.516 0-41.124 33.159-74.283 74.283-74.283 24.214 0 45.472 11.623 59.069 29.534l0.447-0.447 2.237 3.58c0.115 0.169 0.335 0.278 0.447 0.447l164.676 268.494z" />
<glyph unicode="&#xe907;" glyph-name="book-appointment" data-tags="book-appointment" d="M268.977 951.293v-220.728h78.198v220.728h-78.198zM678.267 951.293v-221.837h80.416v221.837h-80.416zM0 850.357v-905.65h1024.333v905.65h-213.518v-173.033h-185.234v173.033h-227.383v-171.369h-180.797v171.369h-217.4zM109.255 523.702h805.269v-461.976h-805.823l0.555 461.976zM507.452 494.308c-54.902 0-99.272-44.377-99.272-99.272 0-54.893 44.37-99.827 99.272-99.827 54.922 0 99.272 44.934 99.272 99.827 0 54.895-44.35 99.272-99.272 99.272zM507.452 281.345c-102.954 0-186.343-83.932-186.343-186.898h372.686c0 102.966-83.368 186.898-186.343 186.898z" />
<glyph unicode="&#xe908;" glyph-name="box" data-tags="box" d="M511.74 960l-438.634-292.423v-439.154l438.634-292.423 439.154 292.423v439.154l-439.154 292.423zM511.74 817.431l320-213.333-320-213.333-320 213.333 320 213.333z" />
<glyph unicode="&#xe909;" glyph-name="branch" data-tags="branch" d="M512 960c-174.498 0-315.961-141.412-315.961-315.961 0-149.637 315.961-707.944 315.961-707.944s315.961 558.306 315.961 707.944c0 174.549-141.351 315.961-315.961 315.961zM512 806.533c80.994 0 146.815-65.737 146.815-146.815 0-80.987-65.821-146.815-146.815-146.815-80.972 0-146.815 65.828-146.815 146.815 0 81.078 65.844 146.815 146.815 146.815z" />
<glyph unicode="&#xe90a;" glyph-name="calculator" data-tags="calculator" d="M165.234 960.043v-1024.043h693.532v1024.043h-693.532zM262.22 849.512h499.56v-211.311h-499.56v211.311zM262.22 498.411h134.372v-107.823h-134.372v107.823zM444.814 498.411h134.372v-107.823h-134.372v107.823zM627.408 498.411h134.372v-107.823h-134.372v107.823zM262.22 326.654h134.372v-108.364h-134.372v108.364zM444.814 326.654h134.372v-108.364h-134.372v108.364zM627.408 326.654h134.372v-108.364h-134.372v108.364zM262.22 154.354h134.372v-107.823h-134.372v107.823zM444.814 154.354h134.372v-107.823h-134.372v107.823zM627.408 154.354h134.372v-107.823h-134.372v107.823z" />
<glyph unicode="&#xe90b;" glyph-name="calendar" data-tags="calendar" d="M268.977 951.293v-220.728h78.198v220.728h-78.198zM678.267 951.293v-221.837h80.416v221.837h-80.416zM0 850.357v-905.65h1024.333v905.65h-213.518v-173.033h-185.234v173.033h-227.383v-171.369h-180.797v171.369h-217.4zM109.255 523.702h805.269v-461.976h-805.823l0.555 461.976z" />
<glyph unicode="&#xe90c;" glyph-name="car" data-tags="car" d="M815.869 839.615l-595.207-0.701-140.066-310.369h-80.596v-379.951h81.397v-92.21h158.388v92.21h536.537v-92.21h158.388v92.21h89.306v379.951h-74.388l-133.759 311.069zM766.811 756.917l95.113-228.371h-695.025l104.724 227.77 495.188 0.601zM200.138 449.452c39.975 0 72.386-32.41 72.386-72.386 0-39.971-32.41-72.386-72.386-72.386-39.971 0-72.386 32.414-72.386 72.386 0 39.975 32.414 72.386 72.386 72.386zM823.878 449.452c39.971 0 72.386-32.41 72.386-72.386 0-39.971-32.414-72.386-72.386-72.386-39.983 0-72.386 32.414-72.386 72.386 0 39.975 32.402 72.386 72.386 72.386z" />
<glyph unicode="&#xe90d;" glyph-name="card" data-tags="card" d="M0 791.614v-177.895h1023.958v177.895h-1023.958zM0 504.122v-399.735h1023.958v399.735h-1023.958zM77.829 310.343h169.954v-135.539h-169.954v135.539z" />
<glyph unicode="&#xe90e;" glyph-name="cash" data-tags="cash" d="M512 960.057c-198.907 0-359.92-67.639-359.92-151.395 0-83.764 161.013-152.109 359.92-152.109 198.807 0 359.92 68.345 359.92 152.109 0 83.756-161.113 151.395-359.92 151.395zM179.217 682.976c-17.496-17.887-27.137-36.043-27.137-54.274 0-72.061 147.767-152.823 359.92-152.823 212.284 0 359.92 80.762 359.92 152.823 0 18.23-8.904 36.386-26.423 54.274-75.206-50.357-195.528-82.125-333.497-82.125-137.95 0-257.61 31.767-332.783 82.125zM179.217 501.588c-17.496-17.876-27.137-36.743-27.137-54.988 0-72.047 147.767-152.109 359.92-152.109 212.284 0 359.92 80.062 359.92 152.109 0 18.244-8.904 37.112-26.423 54.988-75.206-50.346-195.528-82.125-333.497-82.125-137.95 0-257.61 31.779-332.783 82.125zM179.217 323.057c-17.496-17.819-27.137-36.82-27.137-54.988 0-72.048 147.767-152.109 359.92-152.109 212.284 0 359.92 80.061 359.92 152.109 0 18.167-8.904 37.169-26.423 54.988-75.206-50.289-195.528-82.125-333.497-82.125-137.95 0-257.61 31.836-332.783 82.125zM179.217 143.097c-17.496-17.887-27.137-36.733-27.137-54.988 0-72.048 147.767-152.109 359.92-152.109 212.284 0 359.92 80.060 359.92 152.109 0 18.255-8.904 37.101-26.423 54.988-75.206-50.357-195.528-82.839-333.497-82.839-137.95 0-257.61 32.482-332.783 82.839z" />
<glyph unicode="&#xe90f;" glyph-name="chev-down" data-tags="chev-down" d="M170.667 789.333l-170.667-170.667 512-512 512 512-170.667 170.667-341.333-341.333-341.333 341.333z" />
<glyph unicode="&#xe910;" glyph-name="chev-left" data-tags="chev-left" d="M170.667 448l512-512 170.667 170.667-341.333 341.333 341.333 341.333-170.667 170.667z" />
<glyph unicode="&#xe911;" glyph-name="chev-light-down" data-tags="chev-light-down" d="M130.909 773.818l-130.909-122.182 512-529.455 512 529.455-130.909 122.182-381.091-389.818-381.091 389.818z" />
<glyph unicode="&#xe912;" glyph-name="chev-light-left" data-tags="chev-light-left" d="M837.818 829.673l-390.982-381.673 390.982-381.673-121.018-130.327-530.618 512 530.618 512z" />
<glyph unicode="&#xe913;" glyph-name="chev-light-right" data-tags="chev-light-right" d="M186.182 66.327l121.018-130.327 530.618 512-530.618 512-121.018-130.327 390.982-381.673z" />
<glyph unicode="&#xe914;" glyph-name="chev-light-up" data-tags="chev-light-up" d="M512 773.818l-512-530.618 130.327-121.018 381.673 390.982 381.673-390.982 130.327 121.018z" />
<glyph unicode="&#xe915;" glyph-name="chev-right" data-tags="chev-right" d="M853.333 448l-512-512-170.667 170.667 341.333 341.333-341.333 341.333 170.667 170.667z" />
<glyph unicode="&#xe916;" glyph-name="chev-up" data-tags="chev-up" d="M512 789.333l-512-512 170.667-170.667 341.333 341.333 341.333-341.333 170.667 170.667z" />
<glyph unicode="&#xe917;" glyph-name="cinema-tickets" data-tags="cinema-tickets" d="M814.105 905.105l-138.421-40.526 84.211-278.947h56.842c-8.568 10.017-15.419 21.331-20 36.316-16.514 54.851 11.109 112.92 62.105 135.789l-44.737 147.368zM618.842 845.105l-618.947-185.789 115.263-381.579v307.895h582.105l-78.421 259.474zM173.579 523v-532.105h633.684v532.105h-633.684zM863.579 523v-532.105h160.526v154.211c-55.371 7.155-98.421 54.3-98.421 111.579s43.051 104.893 98.421 112.105v154.211h-160.526zM528.842 424.579l38.421-116.842h122.632l-99.474-72.105 37.895-117.368-99.474 72.632-99.474-72.632 38.421 117.368-100 72.105h123.158l37.895 116.842z" />
<glyph unicode="&#xe918;" glyph-name="clock" data-tags="clock" d="M512.259 960c-282.791 0-512.259-229.469-512.259-512.259 0-282.767 229.469-511.67 512.259-511.67 282.767 0 511.67 228.903 511.67 511.67 0 282.791-228.903 512.259-511.67 512.259zM470.454 848.127h85.377v-356.226h356.226v-85.377h-441.603v441.603z" />
<glyph unicode="&#xe919;" glyph-name="cloud" data-tags="cloud" d="M600.713 764.76c-123.717 0-226.564-88.976-248.295-206.407-13.769 40.856-52.322 70.363-97.825 70.363-57.035 0-103.267-46.222-103.267-103.267 0-12.493 2.389-24.475 6.454-35.561-89.037-11.759-157.811-82.882-157.811-175.148 0-100.391 81.454-182.995 181.856-182.995 11.764 0 671.613-0.506 671.613-0.506 95.82 9.107 170.592 91.887 170.592 190.081 0 98.169-74.949 178.773-170.719 187.93 0.008 0.967 0.126 1.939 0.126 2.911 0 139.516-113.204 252.598-252.725 252.598z" />
<glyph unicode="&#xe91a;" glyph-name="cog" data-tags="cog" d="M556.462 959.857l-7.914-92.047c-47.998 4.315-97.545 0.417-145.776-12.495l-23.741 89.132c-28.406-7.597-56.561-17.593-84.134-30.405-27.539-12.778-53.396-27.772-77.47-44.566l53.313-75.804c-41.001-28.522-76.037-63.392-103.709-102.876l-75.387 52.896c-34.42-49.097-60.26-103.626-75.804-161.187l89.548-24.157c-12.678-46.882-17.56-96.046-13.328-145.36l-92.047-7.914c4.981-58.044 19.842-116.105 45.815-172.016l84.134 38.735c21.275-45.799 49.564-85.733 83.301-119.537l-65.391-65.391c42.7-42.783 92.114-76.953 145.776-102.043l39.151 83.717c44.249-20.692 92.247-33.52 141.195-37.902l-8.33-92.464c58.544-5.265 118.57-0.35 177.431 15.411l-23.741 89.548c23.224 6.214 46.165 14.078 68.723 24.574 22.591 10.513 43.949 22.908 63.725 36.652l52.896-75.804c50.014 34.836 92.447 77.653 126.201 125.784l-75.804 53.313c28.172 40.251 48.931 84.867 61.643 132.032l89.548-24.157c15.461 57.211 20.975 117.271 15.827 177.431l-92.047-7.914c-4.082 47.598-16.627 95.379-37.902 141.195l84.134 38.735c0 0.017 0.016 0.401 0 0.417-25.99 55.862-60.926 104.542-102.043 145.776l-65.391-65.391c-34.953 35.070-75.537 63.159-119.537 83.717l39.151 84.134c-53.979 25.223-112.306 40.867-172.016 46.232zM503.149 670.804c86.437 3.009 170.363-44.891 209.085-128.283 51.696-111.157 3.682-243.205-107.458-294.885-111.173-51.646-243.238-3.282-294.885 107.875-51.663 111.173-3.265 243.238 107.875 294.885 27.793 12.907 56.571 19.406 85.383 20.409z" />
<glyph unicode="&#xe91b;" glyph-name="compare" data-tags="compare" d="M170.151 848.487v-168.37h-170.316v-447.202h511.922v615.572h-341.606zM132.195 833.401l-132.36-114.842v-0.973h132.36v115.815zM569.178 662.599v-514.842h-57.421v-100.243h512.409v615.085h-454.988zM274.774 648.487l137.226-137.713-137.226-137.226v68.613h-151.338v137.713h151.338v68.613zM763.338 492.282v-68.613h151.338v-137.226h-151.338v-69.1l-137.226 137.226 137.226 137.713z" />
<glyph unicode="&#xe91c;" glyph-name="credit-cards" data-tags="credit-cards" d="M290.888 862.267l-48.52-127.538 345.646-130.773h239.827v-90.57l147.408-55.913 48.058 127.538-732.419 277.256zM212.794 656.635l-19.87-52.679h158.96l-139.090 52.679zM0.693 559.134v-135.856h783.249v135.856h-783.249zM827.841 423.74v-327.162l9.242-3.235 108.592 286.036-117.834 44.361zM0.693 339.639v-305.906h783.249v305.906h-783.249zM59.841 190.845h130.31v-103.509h-130.31v103.509z" />
<glyph unicode="&#xe91d;" glyph-name="current-account" data-tags="current-account" d="M-0.052 877.079v-85.816h378.934l-54.281 85.816h-324.653zM-0.052 741.118v-722.197h1024.103v722.197h-1024.103zM553.099 568.969c33.011 0 62.73-5.807 91.502-16.026l-11.373-82.197c-17.384 7.188-41.138 11.89-61.519 11.89-37.197 0-55.315-19.556-55.315-61.519v-25.848h83.231l-8.271-72.375h-74.96v-24.297c0-30.573-5.97-53.506-26.365-66.688v-1.034h149.402l-8.788-75.477h-245.557l-3.102 71.858c29.992 8.983 39.806 29.628 39.806 62.036v33.603h-41.874v72.375h41.874v33.086c0 89.96 42.616 140.614 131.309 140.614z" />
<glyph unicode="&#xe91e;" glyph-name="deferred-checking" data-tags="deferred-checking" d="M455.485 958.537c-256.241-28.049-455.447-245.385-455.447-509.113 0-282.763 229.215-511.962 511.962-511.962 282.768 0 511.962 229.199 511.962 511.962 0 113.089-36.686 217.801-98.783 302.523l-71.238-65.539c46.601-67.18 73.612-149.043 73.612-236.984 0-229.564-185.989-415.554-415.554-415.554-229.572 0-415.554 185.989-415.554 415.554 0 210.471 156.123 384.729 359.038 412.229v96.883zM568.515 958.537v-97.358c78.979-10.699 150.562-43.054 208.964-91.659l71.713 65.539c-76.789 67.214-173.723 111.777-280.677 123.479zM736.636 643.191l-266.429-68.863c-18.721-5.304-36.59-14.804-52.241-28.495-56.582-49.399-62.228-135.285-12.823-191.867 49.414-56.559 135.285-62.252 191.867-12.823 15.657 13.668 27.389 30.097 35.144 47.967l0.95 1.9 103.532 252.182z" />
<glyph unicode="&#xe91f;" glyph-name="depositors-compensation-scheme" data-tags="depositors-compensation-scheme" d="M0 960v-1023.819h1023.819v1023.819h-1023.819zM65.84 894.16h892.138v-892.138h-892.138v892.138zM197.521 729.558v-65.84h314.388v65.84h-314.388zM197.521 563.311v-65.84h628.776v65.84h-628.776zM197.521 397.887v-65.84h314.388v65.84h-314.388zM197.521 232.463v-65.84h628.776v65.84h-628.776z" />
<glyph unicode="&#xe920;" glyph-name="dollar" data-tags="dollar" d="M551.038 152.983c24.494 6.889 45.161 18.753 62.001 35.593 16.84 16.797 25.26 41.377 25.26 73.483 0 33.68-7.867 58.387-23.559 74.078s-36.912 28.874-63.702 39.591v-222.746zM475.258 737.403c-14.544-2.296-27.173-6.506-37.89-12.63-34.445-17.605-51.668-47.458-51.668-89.557 0-31.383 8.25-55.325 24.664-71.782 16.457-16.415 38.102-30.023 64.893-40.739v214.708zM551.038 960.149v-112.521c32.872-1.531 62.597-5.146 89.005-10.886 26.408-5.783 49.159-12.843 68.295-21.262l-11.482-106.78c-21.433 9.185-45.587 16.84-72.335 22.963-26.791 6.124-51.328 9.951-73.483 11.482v-249.111l25.26-8.080c26.791-9.951 51.285-20.454 73.483-31.553 22.198-11.142 41.334-24.707 57.409-40.781s28.534-35.806 37.337-59.152c8.76-23.346 13.183-51.455 13.183-84.369 0-32.149-5.188-61.066-15.522-86.666-10.291-25.685-24.664-47.67-43.035-66.041s-40.186-33.297-65.446-44.779c-25.26-11.482-52.816-19.519-82.668-24.112v-112.521h-75.779v106.78c-39.038 0.808-75.95 4.423-110.82 10.929-34.828 6.464-65.616 15.096-92.407 25.813l10.334 109.076c26.025-12.247 56.643-22.241 91.854-29.852 35.211-7.654 68.89-11.907 101.039-12.63v254.894l-26.408 9.185c-26.791 9.185-51.498 19.902-74.078 32.149s-41.887 27.131-57.961 44.779c-16.074 17.605-28.534 38.272-37.337 62.001s-13.183 51.285-13.183 82.668c0 62.001 18.924 111.16 56.856 147.561 37.847 36.316 88.579 58.344 152.112 65.999v114.817h75.779z" />
<glyph unicode="&#xe921;" glyph-name="download" data-tags="download" d="M216.2 908.029l-216.153-187.489v-700.617h632.482l-71.424 70.954h-479.295v594.89l167.283 0.94 0.94 150.367h407.401v-201.586h81.292v272.54h-522.526zM596.347 586.15v-312.012l-142.379-0.94 284.288-285.228 285.698 284.288-142.849 0.47v312.482l-284.758 0.94z" />
<glyph unicode="&#xe922;" glyph-name="duration" data-tags="duration" d="M558.65 913.062c-108.908 0-214.62-38.213-298.043-107.986-10.539-8.783-21.079-18.199-30.956-28.076l36.715-36.715c8.754 8.725 17.998 17.364 27.357 25.197 74.18 61.999 168.085 95.748 264.927 95.748 227.981 0 413.948-185.161 413.948-413.228 0-228.039-185.967-413.948-413.948-413.948-228.067 0-413.228 185.91-413.228 413.948h91.429l-118.065 205.174-118.785-205.174h93.588c0-256.49 208.544-465.062 465.062-465.062 256.49 0 465.062 208.572 465.062 465.062 0 256.547-208.572 465.062-465.062 465.062zM678.155 706.448l-144.702-251.968v-246.209h51.114v232.531l138.223 239.73-44.634 25.917z" />
<glyph unicode="&#xe923;" glyph-name="eating-out" data-tags="eating-out" d="M511.775 796.213c-37.785 0-68.424-30.603-68.424-68.424 0-37.815 30.639-68.424 68.424-68.424 37.881 0 68.893 30.609 68.893 68.424 0 37.821-31.012 68.424-68.893 68.424zM512.712 609.219c-210.919 0-389.514-164.236-448.975-393.673h896.544c-60.633 226.985-238.137 393.673-447.569 393.673zM0 156.026v-56.239h1024.019v56.239h-1024.019z" />
<glyph unicode="&#xe924;" glyph-name="email" data-tags="email" d="M-0.128 775.698l512.128-291.346 512.128 291.346h-1024.257zM-0.128 711.014v-590.712h1024.257v590.712l-512.128-288.139-512.128 288.139z" />
<glyph unicode="&#xe925;" glyph-name="euro" data-tags="euro" d="M831.858 95.74c-56.672-34.008-136.338-55.13-207.905-55.13-151.416 0-221.19 62.882-247.223 223.848h234.844l16.216 98.876h-259.62c-2.436 32.568-2.436 66.080-2.436 93.269v14.389h260.155l16.272 96.007h-271.561c19.699 200.034 97.003 285.517 257.656 285.517 71.835 0 138.9-19.437 205.020-59.421l6.528-3.944 27.394 104.761-3.694 2.186c-69.734 41.208-153.282 63.9-235.248 63.9-228.566 0-350.43-128.552-372.44-392.999h-82.74l-16.272-96.007h95.705v-17.257c0-20.37 0-57.287 1.212-90.401h-80.674l-16.21-98.876h104.966c29.984-227.12 141.848-328.455 362.15-328.455 82.267 0 172.97 23.945 236.728 62.495l3.643 2.203-25.954 98.95-6.511-3.91z" />
<glyph unicode="&#xe926;" glyph-name="eu-savings" data-tags="eu-savings" d="M57.532 960.086v-751.204h287.373l167.094-272.969 167.094 272.969h287.373v751.204h-908.935zM115.151 902.468h793.698v-635.967h-261.445l-135.404-220.392-134.684 220.392h-262.165v635.967zM512 819.641l-16.565-33.131-36.732-5.762 26.649-25.928-6.482-37.452 33.131 18.006 33.131-18.006-5.762 37.452 26.649 25.928-37.452 5.762-16.565 33.131zM375.156 754.82l-17.286-33.131-36.732-5.762 26.649-25.928-6.482-37.452 33.851 18.006 33.131-18.006-6.482 37.452 26.649 25.928-36.732 5.762-16.565 33.131zM649.565 754.82l-16.565-33.131-37.452-5.762 26.649-25.928-5.762-37.452 33.131 18.006 33.131-18.006-6.482 37.452 27.369 25.928-37.452 5.762-16.565 33.131zM321.138 628.779l-16.565-33.851-37.452-5.042 26.649-26.649-5.762-36.732 33.131 17.286 33.131-17.286-6.482 36.732 27.369 26.649-37.452 5.042-16.565 33.851zM702.862 628.779l-16.565-33.851-36.732-5.042 26.649-26.649-6.482-36.732 33.131 17.286 33.851-17.286-6.482 36.732 26.649 26.649-36.732 5.042-17.286 33.851zM375.156 489.053l-17.286-33.851-36.732-5.042 26.649-26.649-6.482-36.732 33.851 17.286 33.131-17.286-6.482 36.732 26.649 26.649-36.732 5.042-16.565 33.851zM649.565 489.053l-16.565-33.851-37.452-5.042 26.649-26.649-5.762-36.732 33.131 17.286 33.131-17.286-6.482 36.732 27.369 26.649-37.452 5.042-16.565 33.851zM512 437.917l-16.565-33.851-36.732-5.042 26.649-26.649-6.482-36.732 33.131 17.286 33.131-17.286-5.762 36.732 26.649 26.649-37.452 5.042-16.565 33.851z" />
<glyph unicode="&#xe927;" glyph-name="filing-cabinet" data-tags="filing-cabinet" d="M169.273 960v-305.11h685.453v305.11h-685.453zM512.209 859.481c29.901 0 54.126-24.225 54.126-54.126s-24.225-54.126-54.126-54.126c-29.901 0-54.126 24.225-54.126 54.126s24.225 54.126 54.126 54.126zM169.273 600.555v-305.11h685.453v305.11h-685.453zM512.209 500.767c29.901 0 54.126-24.329 54.126-54.23s-24.225-54.126-54.126-54.126c-29.901 0-54.126 24.225-54.126 54.126s24.225 54.23 54.126 54.23zM169.273 241.11v-305.11h685.453v305.11h-685.453zM512.209 141.949c29.901 0 54.126-24.225 54.126-54.126s-24.225-54.126-54.126-54.126c-29.901 0-54.126 24.225-54.126 54.126s24.225 54.126 54.126 54.126z" />
<glyph unicode="&#xe928;" glyph-name="financial-management" data-tags="financial-management" d="M480.589 959.607c-240.002-14.698-436.519-195.408-474.307-428.761l124.074-19.632c28.49 175.933 175.703 311.627 357.301 322.748l-7.067 125.644zM540.27 959.607l-6.282-125.644c203.6-11.258 364.368-178.797 364.368-385.571 0-79.313-23.613-152.357-64.393-213.595l104.442-69.89c54.018 81.117 85.595 178.98 85.595 283.485 0 272.371-214.719 496.339-483.73 511.215zM510.429 690.258c-65.47 0-119.362-53.865-119.362-119.362 0-47.508 28.546-87.873 69.104-106.798-88.133-22.39-153.914-102.076-153.914-197.104v-15.706h407.558v15.706c0 95.031-65.159 174.715-153.129 197.104 40.263 18.951 68.319 59.34 68.319 106.798 0 65.497-53.106 119.362-118.577 119.362zM0.785 470.38c-0.327-7.493-0.785-14.621-0.785-21.988 0-103.859 31.399-201.081 84.81-281.914l104.442 69.104c-40.319 61.019-63.607 133.982-63.607 212.81 0 5.763-0.239 11.043 0 16.491l-124.859 5.497zM217.521 198.675l-95.804-81.669c93.843-110.265 234.442-180.613 390.282-180.613 155.794 0 295.645 70.374 389.497 180.613l-95.018 80.883c-70.93-83.315-176.179-135.853-294.479-135.853-118.316 0-223.54 53.286-294.479 136.638z" />
<glyph unicode="&#xe929;" glyph-name="forward-fx" data-tags="forward-fx" d="M268.977 951.293v-220.728h78.198v220.728h-78.198zM678.267 951.293v-221.837h80.416v221.837h-80.416zM0 850.357v-905.65h1024.333v905.65h-213.518v-173.033h-185.234v173.033h-227.383v-171.369h-180.797v171.369h-217.4zM109.255 523.702h805.269v-461.976h-805.823l0.555 461.976zM527.418 487.653c-59.765 0-108.562-48.463-108.7-108.146v-37.712h-29.393v-245.13h275.633v245.13h-29.393v37.712c-0.11 59.682-48.353 108.146-108.146 108.146zM527.418 448.277c38.107 0 68.659-30.69 68.769-68.769v-37.712h-138.094v37.712c0.11 38.080 31.217 68.769 69.324 68.769z" />
<glyph unicode="&#xe92a;" glyph-name="fund-prices" data-tags="fund-prices" d="M46.241 717.635c-25.42 0-46.241-20.846-46.241-46.241v-446.788c0-25.42 20.821-46.241 46.241-46.241h680.492c25.47 0 46.766 0.15 46.866 0 0.174-0.15 14.547 14.572 32.494 32.494l204.335 203.71c18.021 17.946 18.021 47.641 0 65.612l-204.335 204.335c-17.946 17.922-32.344 32.644-32.494 32.494 0 0.25-20.821 0.625-46.241 0.625h-681.117zM374.927 620.154h26.87v-37.493c10.198-0.75 20.121-2.175 29.369-4.374 9.248-2.25 16.972-4.524 23.745-6.874l-3.749-43.741c-8.048 3.674-16.047 6.549-24.37 8.748-8.348 2.25-16.897 3.274-24.995 3.749v-74.36l6.874-1.875c9.648-3.649 18.421-7.574 26.245-11.873 7.798-4.299 14.022-9.273 19.371-14.997 5.349-5.749 9.648-12.423 12.498-19.996 2.874-7.524 4.374-16.097 4.374-26.245 0-23.97-7.024-42.742-21.246-55.614-14.197-12.897-32.794-20.471-56.239-23.12v-36.243h-27.495v34.993c-10.948 0.5-22.146 1.975-33.743 4.374-11.598 2.3-22.246 5.374-31.869 8.748l3.124 43.741c9.598-4.424 19.771-7.424 31.244-9.998 11.448-2.599 22.121-4.124 31.244-4.374v76.235l-6.249 1.875c-9.323 3.174-17.797 7.449-25.62 11.873-7.848 4.399-14.272 9.373-19.996 15.622s-10.623 13.722-13.747 21.871c-3.149 8.198-4.374 17.847-4.374 28.744 0 19.521 6.824 35.743 20.621 48.74 13.847 13.022 33.368 20.496 58.114 23.12v38.742zM213.083 584.536c7.574 0 15.647-0.45 24.37-1.875 8.723-1.45 17.672-3.349 26.245-6.249l-6.249-41.867c-5.749 2.075-12.098 3.724-18.746 4.999-6.649 1.3-13.097 1.875-19.371 1.875-16.147 0-27.445-4.099-34.368-11.873-6.874-7.848-10.623-20.721-10.623-38.742v-20.621h58.114v-36.868h-58.114v-24.37c0-12.773-1.475-24.145-4.999-33.743-3.524-9.623-9.198-16.797-16.247-21.246v-0.625h104.979l-3.749-38.118h-152.47l-1.875 37.493c9.673 4.449 17.272 11.023 21.871 19.371 4.549 8.298 6.249 17.897 6.249 29.369v31.869h-29.369v36.868h29.369v25.62c0 59.363 28.469 88.733 84.983 88.733zM637.376 584.536c9.898 0 19.971-0.925 29.994-3.124 9.998-2.25 19.421-5.224 27.495-9.373l-5.624-44.366c-6.774 3.674-14.647 6.024-23.12 8.123s-16.647 3.124-24.995 3.124c-16.372 0-29.344-3.624-38.742-11.873-9.373-8.198-15.722-21.646-19.371-39.367h74.985l-3.749-33.119h-76.235c-0.249-1.3-0.625-3.199-0.625-4.999v-5.624c0-2.15-0.15-4.149 0-6.249 0.1-2.050 0.375-4.149 0.625-6.249h75.61l-3.749-33.743h-66.862c3.349-15.622 9.623-26.845 18.746-33.743 9.123-6.874 21.971-10.623 38.118-10.623 8.048 0 16.497 1.025 25.62 3.124 9.098 2.1 17.472 5.074 24.995 8.748l4.374-43.117c-7.823-3.899-17.322-6.874-28.12-9.373-10.798-2.425-20.996-3.749-30.619-3.749-31.519 0-55.689 7.424-72.486 22.496-16.797 15.097-27.47 37.318-31.869 66.237h-33.119l3.749 33.743h26.245c-0.276 2.1-0.625 4.199-0.625 6.249v11.248c0 1.725 0.35 3.774 0.625 5.624h-26.87l3.124 33.119h26.87c5.199 31.769 17.022 56.064 34.993 72.486 17.971 16.447 41.417 24.37 70.611 24.37zM374.927 538.92c-3.649-0.775-7.499-1.8-10.623-3.124-11.173-5.474-16.872-13.997-16.872-26.245 0-8.298 3.024-14.922 8.123-19.996 5.074-5.074 11.598-9.473 19.371-13.122v62.488zM862.956 502.053c29.819 0 54.364-24.545 54.364-54.364 0-29.719-24.545-53.74-54.364-53.74-29.744 0-53.74 24.020-53.74 53.74 0 29.819 23.995 54.364 53.74 54.364zM393.673 419.569v-64.362c8.323 2.075 14.297 5.774 18.746 10.623 4.424 4.824 6.874 11.773 6.874 20.621 0 9.123-2.45 15.947-6.874 20.621-4.449 4.699-10.423 8.848-18.746 12.498z" />
<glyph unicode="&#xe92b;" glyph-name="guidance" data-tags="guidance" d="M352.146 914.423v-58.394h-351.825v-405.839h351.825v-468.613h173.723v468.613h145.985c93.419 0 145.985 0.594 145.985 1.46 0 0.746 0.276 0.453 1.46 0 1.508-0.579 32.74 29.91 103.65 100.73l100.73 100.73-100.73 100.73c-70.532 70.426-102.159 99.842-103.65 99.27-1.175-0.451-1.46 0.714-1.46 1.46 0 0.866-52.566 1.46-145.985 1.46h-145.985v58.394h-173.723zM117.109 683.766h642.336v-59.854h-642.336v59.854z" />
<glyph unicode="&#xe92c;" glyph-name="gutter" data-tags="gutter" d="M11.271 436.589c0-276.569 224.489-500.496 500.963-500.496 276.599 0 500.496 224.002 500.496 500.496h-150.336c0-0.321 0-0.605 0-0.934 0-193.61-157.047-350.627-350.627-350.627-193.595 0-350.627 157.018-350.627 350.627 0 0.329 0.467 0.612 0.467 0.934h-150.336zM522.972 959.963c0 0-199.358-352.407-199.358-446.805 0-110.133 89.182-199.358 199.358-199.358 110.074 0 199.358 89.225 199.358 199.358 0 94.398-199.358 446.805-199.358 446.805zM276.029 799.737v0z" />
<glyph unicode="&#xe92d;" glyph-name="help" data-tags="help" d="M510.471 960c-156.966 0-283.758-118.879-290.446-291.975h124.331c0 80.151 66.791 167.134 167.134 167.134 98.248 0 167.643-68.932 167.643-167.134 0-88.002-69.395-167.588-167.643-167.643l-58.599-1.019v-274.65h120.255v158.471l15.287 5.096c123.343 36.186 215.541 142.166 215.541 278.217 0 161.918-131.616 293.503-293.503 293.503zM509.962 112.102c-48.487 0-88.153-39.602-88.153-88.153 0-48.543 39.666-88.153 88.153-88.153 48.671 0 88.153 39.61 88.153 88.153 0 48.551-39.482 88.153-88.153 88.153z" />
<glyph unicode="&#xe92e;" glyph-name="home" data-tags="home" d="M510.895 883.691l-510.895-295.885 40.438-59.67 74.464 42.903v-558.73h239.174v346.679h313.638v-346.679h239.174v559.223l76.437-44.383 40.438 57.698-155.34 90.738v189.86h-130.683v-112.436l-226.845 130.683z" />
<glyph unicode="&#xe92f;" glyph-name="idea" data-tags="idea" d="M512.231 959.926c-175.974 0-318.707-142.733-318.707-318.707 0-10.393 2.172-20.272 3.233-30.485-2.88-3.067 4.244-126.703 124.249-281.293 35.097-46.709 20.663-140.416 20.323-140.416h341.339c-0.325 0-14.659 93.707 20.323 140.416 120.201 154.612 127.706 278.226 124.711 281.293 0.937 10.213 2.771 20.092 2.771 30.485 0 175.974-142.276 318.707-318.245 318.707zM369.968 149.764c-14.239 0-25.866-10.154-25.866-22.171 0-12.074 11.627-21.709 25.866-21.709h284.065c14.239 0 25.866 9.635 25.866 21.709 0 12.017-11.627 22.171-25.866 22.171h-284.065zM369.968 64.776c-14.239 0-25.866-10.118-25.866-22.171 0-12.038 11.627-21.709 25.866-21.709h284.065c14.239 0 25.866 9.671 25.866 21.709 0 12.052-11.627 22.171-25.866 22.171h-284.065zM460.037-20.212c-14.18 0-25.404-9.642-25.404-21.709 0-12.052 11.224-22.171 25.404-22.171h103.926c14.239 0 25.866 10.118 25.866 22.171 0 12.067-11.627 21.709-25.866 21.709h-103.926z" />
<glyph unicode="&#xe930;" glyph-name="income-strategy" data-tags="income-strategy" d="M268.977 951.293v-220.728h78.198v220.728h-78.198zM678.267 951.293v-221.837h80.416v221.837h-80.416zM0 850.357v-905.65h1024.333v905.65h-213.518v-173.033h-185.234v173.033h-227.383v-171.369h-180.797v171.369h-217.4zM109.255 523.702h805.269v-461.976h-805.823l0.555 461.976zM511.334 473.234c-65.461 0-118.683-21.522-118.683-47.695 0-26.2 53.222-47.14 118.683-47.14 65.515 0 118.128 20.94 118.128 47.14 0 26.173-52.614 47.695-118.128 47.695zM390.433 384.499v-44.922c0-26.146 54.778-47.695 120.347-47.695 65.406 0 120.347 21.549 120.347 47.695v44.922c-17.178-19.129-64.884-33.276-120.347-33.276-55.571 0-103.358 14.147-120.347 33.276zM390.433 298.537v-44.922c0-26.146 54.778-47.695 120.347-47.695 65.406 0 120.347 21.549 120.347 47.695v44.922c-17.178-19.102-64.884-33.276-120.347-33.276-55.571 0-103.358 14.174-120.347 33.276zM390.433 212.021v-44.367c0-26.173 54.778-47.695 120.347-47.695 65.406 0 120.347 21.522 120.347 47.695v44.367c-17.178-19.102-64.884-32.721-120.347-32.721-55.571 0-103.358 13.619-120.347 32.721z" />
<glyph unicode="&#xe931;" glyph-name="information" data-tags="information" d="M512 959.96c-282.658 0-511.96-229.257-511.96-511.96 0-282.735 229.303-511.96 511.96-511.96 282.789 0 511.96 229.34 511.96 511.96 0 282.703-229.171 511.944-511.96 511.96zM512 864.527c230.118-0.064 416.527-186.449 416.527-416.527 0-230.181-186.409-416.527-416.527-416.527-230.142 0-416.527 186.346-416.527 416.527 0 230.078 186.385 416.527 416.527 416.527zM512 758.158c-52.051 0-68.096-26.841-68.096-67.102v-6.959c0-41.114 16.045-68.096 68.096-68.096 52.019 0 68.096 26.982 68.096 68.096v6.959c0 40.261-16.077 67.102-68.096 67.102zM449.869 551.883v-407.083h123.268v407.083h-123.268z" />
<glyph unicode="&#xe932;" glyph-name="insurance" data-tags="insurance" d="M512 957.126c-282.737 0-511.959-229.18-511.959-511.959 0 40.747 45.727 73.652 101.98 73.652 56.47 0 101.98-32.905 101.98-73.652 0 40.747 45.743 73.652 101.98 73.652 56.373 0 101.98-32.905 101.98-73.652 0 33.946 32.038 62.426 75.197 71.077v-464.574c0-30.243-24.399-55.11-54.595-55.11-30.219 0-55.11 24.867-55.11 55.11h-57.685c0-62.007 50.829-112.796 112.796-112.796 61.983 0 112.281 50.789 112.281 112.796v463.544c41.309-9.473 71.592-37.009 71.592-70.047 0 40.747 45.648 73.652 101.98 73.652 56.35 0 101.98-32.905 101.98-73.652h1.545c0 40.747 45.623 73.652 101.98 73.652 56.414 0 101.98-32.905 101.98-73.652h2.060c0 282.778-229.269 511.959-511.959 511.959z" />
<glyph unicode="&#xe933;" glyph-name="interatinal-banking-explained" data-tags="interatinal-banking-explained" d="M0 898.783v-733.814h540.621l248.845-167.752v167.752h234.534v733.814h-1024zM500.87 825.64c153.536 0 277.466-124.724 277.466-278.261 0-153.568-123.929-278.261-277.466-278.261-153.568 0-278.261 124.693-278.261 278.261 0 153.536 124.693 278.261 278.261 278.261zM475.429 779.528c-16.759-18.795-41.055-50.182-60.422-91.429 20.003-5.756 41.214-9.668 63.602-11.13v102.559c-1.081-0.095-2.131 0.127-3.18 0zM523.13 779.528v-102.559c20.226 1.749 41.119 6.265 62.807 12.72-19.176 40.324-42.868 71.044-59.627 89.839-1.081 0.095-2.099-0.095-3.18 0zM403.876 759.652c-22.865-10.463-43.822-24.455-62.012-41.342 9.604-5.374 19.653-10.463 30.211-15.106 9.763 21.116 20.957 40.101 31.801 56.447zM597.068 759.652c10.526-15.869 21.434-34.536 31.006-54.857 9.699 4.293 19.431 9.731 29.416 15.106-17.809 16.25-38.289 29.575-60.422 39.752zM688.497 685.714c-14.788-8.427-29.384-15.233-43.727-21.466 9.604-28.558 15.805-60.454 17.491-94.609h70.758c-4.102 43.154-20.067 82.969-44.522 116.075zM311.652 684.124c-24.010-32.914-39.656-71.807-43.727-114.484h70.758c1.685 33.487 8.173 64.111 17.491 92.224-16.123 6.933-31.229 14.501-44.522 22.261zM602.634 647.553c-27.635-8.491-54.126-13.261-79.503-15.106v-62.807h93.814c-1.558 28.24-6.583 54.062-14.311 77.913zM398.311 646.758c-7.505-23.533-12.752-49.356-14.311-77.118h94.609v63.602c-28.589 1.685-55.843 6.265-80.298 13.516zM267.925 525.118c4.039-42.582 19.844-81.666 43.727-114.484 14.183 8.237 30.307 16.568 47.702 23.851-11.13 31.674-17.491 61.726-19.876 90.634h-71.553zM384.795 525.118c2.226-24.169 7.6-49.96 16.696-76.323 23.597 6.774 49.737 11.925 77.118 13.516v62.807h-93.814zM523.13 525.118v-63.602c24.328-1.749 49.133-5.692 75.528-13.516 9.445 26.936 15.169 52.472 17.491 77.118h-93.019zM661.466 525.118c-2.417-29.416-8.3-60.74-19.876-93.019 15.328-6.519 31.070-14.056 46.907-23.056 24.455 33.137 40.419 72.888 44.522 116.075h-71.553zM478.609 417.789c-20.893-1.367-40.801-4.389-59.627-9.54 14.47-29.861 33.868-61.186 59.627-93.019v102.559zM523.13 417.789v-102.559c25.314 31.356 44.395 62.012 58.832 91.429-20.289 5.756-39.847 9.509-58.832 11.13zM376.050 393.143c-11.957-5.12-23.374-10.685-34.186-16.696 20.162-18.763 43.377-33.805 69.168-44.522-13.961 20.925-25.409 41.119-34.981 61.217zM624.099 391.553c-9.381-19.494-20.639-39.37-34.186-59.627 25.155 10.463 47.734 25.568 67.578 43.727-11.385 6.138-22.324 11.194-33.391 15.901z" />
<glyph unicode="&#xe934;" glyph-name="international-banking" data-tags="international-banking" d="M511.809 960c-17.929 0-35.232-1.212-52.686-3.011l-1.505 1.505c-0.217-0.191-1.793-1.842-2.258-2.258-248.617-27.502-443.602-232.232-454.607-485.466h-0.753v-45.16h0.753c11.832-272.272 235.872-489.982 511.056-489.982 282.759 0 512.561 229.802 512.561 512.561 0 263.775-199.778 480.070-456.112 508.046-0.465 0.416-2.040 2.067-2.258 2.258l-1.505-1.505c-17.212 1.748-35.014 3.011-52.686 3.011zM489.229 899.035v-230.314c-58.396 1.161-112.512 10.705-161.069 25.59 41.605 96.115 98.164 166.306 131.716 202.466 9.692 1.119 19.487 1.765 29.354 2.258zM534.389 899.035c9.77-0.48 19.755-1.164 29.354-2.258 32.718-35.208 87.827-102.872 129.458-196.444-55.497-18.744-108.628-27.913-158.811-30.859v229.561zM635.998 882.476c75.573-21.568 143.332-62.293 197.197-116.662-33.207-19.681-65.232-35.716-97.093-48.923-30.164 68.648-67.963 124.965-100.104 165.585zM386.867 881.723c-33.165-42.033-71.873-100.711-102.362-172.359-37.478 14.564-70.932 31.649-100.104 48.923 54.63 57.624 124.168 100.811 202.466 123.436zM863.301 731.191c58.206-72.032 94.428-162.021 99.351-260.42h-170.854c-0.188 8.768-0.19 17.57-0.753 26.343-4.189 65.348-18.974 125.088-38.386 178.38 36.001 14.96 73.064 32.965 110.641 55.697zM155.048 723.665c32.785-19.887 70.583-39.68 113.652-56.45-17.906-51.2-31.399-108.085-35.375-170.101-0.562-8.766-0.567-17.582-0.753-26.343h-171.606c4.754 95.109 39.238 182.104 94.083 252.894zM709.758 658.936c18.145-49.58 32.267-104.657 36.128-164.833 0.496-7.754 0.576-15.578 0.753-23.332h-212.25v153.543c55.277 3.062 114.094 13.566 175.37 34.622zM310.849 652.162c53.597-16.92 113.444-28.141 178.38-29.354v-152.037h-212.25c1.455 59.158 12.118 117.848 32.364 176.875 0.512 1.493 0.984 3.033 1.505 4.516zM60.965 425.611h171.606c3.454-65.961 18.232-131.149 42.902-196.444-45.26-17.642-85.063-38.546-118.92-59.46-55.895 71.26-90.855 159.675-95.588 255.904zM277.732 425.611h211.497v-152.037c-62.238-1.883-119.946-13.029-171.606-29.354-22.993 60.419-36.522 120.814-39.891 181.391zM534.389 425.611h211.497c-3.555-61.252-17.302-122.698-40.644-183.649-59.764 19.398-116.921 29.257-170.854 31.612v152.037zM791.046 425.611h171.606c-4.767-96.849-39.811-185.915-96.34-257.41-40.375 24.159-80.396 43.459-118.92 58.707 25.223 66.061 40.165 131.957 43.654 198.702zM486.971 227.662c0.731 0.026 1.525-0.023 2.258 0v-230.314c-7.817 0.391-15.624 0.72-23.332 1.505-55.843 67.395-99.168 135.229-130.21 203.218 45.924 14.020 96.543 23.655 151.285 25.59zM534.389 227.662c48.609-2.273 99.838-10.847 153.543-27.848-30.918-67.512-73.666-134.47-128.705-200.96-0.104-0.123-0.65 0.123-0.753 0-7.828-0.797-16.145-1.114-24.085-1.505v230.314zM292.785 187.018c26.418-58.922 60.989-117.42 104.62-175.37-81.571 21.412-153.973 64.378-210.745 123.436 30.619 18.459 66.011 36.446 106.125 51.934zM730.833 184.76c34.26-13.463 68.769-30.979 104.62-51.934-56.538-58.022-128.543-100.071-209.239-121.178 43.116 57.255 78.308 114.906 104.62 173.112z" />
<glyph unicode="&#xe935;" glyph-name="international-bonus-saver-account" data-tags="international-bonus-saver-account" d="M331.94 736.583l-18.217 50.816c90.187 32.479 189.693 35.506 281.438 8.539l-15.221-51.895c-80.809 23.7-168.479 21.124-248-7.461zM507.341 611.040v-123.805h120.599v-79.281h-120.599v-122.966h-85.693v122.966h-119.76v79.281h119.76v123.805h85.693zM1023.955 510.186l-98.936 39.551c-17.288 65.648-53.903 125.034-104.719 173.843l0.899-0.569 84.494 141.963c0 0-154.337 36.075-223.551-50.397-64.12 27.805-136.929 43.715-214.052 43.715-258.457 0-468.045-176.33-468.045-393.738 0-119.88 63.76-227.086 164.225-299.326l-8.809 3.715 50.727-145.378h84.494l39.94 64.569c43.446-11.146 89.618-17.318 137.468-17.318 40.3 0 79.461 4.315 116.764 12.434l37.004-59.685h84.434l44.404 127.191c82.097 52.404 143.041 127.101 169.918 213.423l99.925 54.682 3.416 91.326z" />
<glyph unicode="&#xe936;" glyph-name="international-current-account" data-tags="international-current-account" d="M726.831 400.86c-3.792 39.893-18.609 76.553-41.216 107.157-13.67-7.791-27.076-14.229-40.334-19.991 8.878-26.4 15.081-55.592 16.639-87.166h64.911zM685.614 252.516c22.607 30.633 37.424 67.263 41.216 107.186h-65.646c-2.234-27.193-8.114-55.768-18.815-85.608 14.17-6.027 28.605-13.259 43.245-21.578zM594.774 180.99c23.254 9.672 44.333 23.46 62.677 40.246-10.525 5.674-20.843 10.554-31.074 14.905-8.672-18.021-19.079-36.424-31.603-55.151zM365.32 222.413c18.638-17.345 40.217-31.544 64.059-41.452-12.906 19.344-23.548 38.306-32.397 56.886-11.054-4.733-21.667-9.878-31.662-15.434zM297.234 359.702c3.734-39.364 18.227-75.583 40.305-105.922 13.112 7.614 27.664 15.14 43.745 21.872-10.289 29.281-16.022 57.327-18.227 84.050h-65.823zM337.715 507.017c-22.196-30.427-36.718-66.705-40.481-106.157h65.117c1.558 30.956 7.526 59.649 16.14 85.637-14.905 6.409-28.487 13.347-40.775 20.52zM422.706 576.514c-21.137-9.672-40.393-22.607-57.209-38.218 8.878-4.968 18.315-9.525 28.075-13.817 9.025 19.52 19.109 36.924 29.134 52.035zM488.528 594.771c-15.493-17.374-37.953-46.302-55.857-84.432 18.492-5.321 38.1-8.937 58.797-10.289v95.015c-1-0.089-1.97-0.176-2.94-0.294zM619.85 400.86c-1.441 26.106-6.497 50.359-13.641 72.408-25.547-7.849-50.124-12.259-73.584-13.964v-58.444h87.225zM532.626 260.454v-94.604c23.401 28.987 41.158 57.15 54.504 84.344-18.756 5.321-36.954 8.761-54.504 10.26zM603.064 288.118c8.731 24.9 13.758 48.801 15.904 71.585h-86.343v-58.473c22.49-1.617 46.038-5.88 70.438-13.112zM405.273 359.702c2.058-22.343 6.938-45.802 15.346-70.174 21.814 6.262 45.538 10.554 70.85 12.024v58.15h-86.196zM491.468 459.392c-26.429 1.558-51.182 6.027-73.79 12.729-6.938-21.755-11.847-45.597-13.288-71.261h87.078v58.532zM491.468 260.748c-19.315-1.264-37.689-4.439-55.092-9.202 13.376-27.605 31.28-56.209 55.092-85.637v94.839zM629.993 526.096c8.966 3.969 18.051 8.408 27.282 13.376-16.463 15.023-35.19 27.517-55.651 36.924 9.731-14.67 19.52-31.515 28.369-50.3zM535.624 594.771c-1 0.089-1.999 0.207-2.999 0.294v-94.721c18.697 1.617 38.188 5.468 58.238 11.436-17.727 37.277-39.746 65.617-55.239 82.991zM769.047 380.281c0-141.964-115.065-257-257-257-141.964 0-257 115.035-257 257 0 141.935 115.035 257 257 257 141.935 0 257-115.065 257-257zM1024.047 740.645h-1024.059v-720.786h1024.059v720.786zM380.284 787.741h-380.296v88.401h323.969l56.327-88.401z" />
<glyph unicode="&#xe937;" glyph-name="international-money-transfer" data-tags="international-money-transfer" d="M684.92 780.725v-108.475h-684.92v-448.501h684.92v-108.475l338.983 332.725-338.983 332.725zM374.446 599.239h25.38v-35.115c9.401-0.723 18.218-2.128 26.771-4.172s15.979-4.103 22.251-6.258l-3.477-40.678c-7.468 3.365-15.242 5.938-22.947 7.997-7.718 2.030-15.131 3.352-22.599 3.824v-68.492l5.91-1.738c8.914-3.379 17.106-7.148 24.337-11.126s13.49-8.608 18.427-13.907c4.937-5.312 8.469-11.445 11.126-18.427 2.642-6.995 4.172-15.27 4.172-24.685 0-22.168-6.675-39.176-19.817-51.108s-30.456-19.136-52.151-21.556v-33.724h-25.38v32.681c-10.124 0.487-20.568 1.655-31.291 3.824s-20.638 4.854-29.552 7.997l3.129 41.026c8.914-4.103 18.594-7.315 29.205-9.735 10.611-2.392 20.068-3.936 28.509-4.172v70.578l-5.563 2.086c-8.678 2.893-16.41 6.328-23.642 10.43s-13.476 9.165-18.774 14.95c-5.299 5.785-9.624 12.572-12.516 20.165-2.893 7.579-4.172 16.299-4.172 26.423 0 18.065 6.342 33.14 19.122 45.198 12.781 12.043 30.637 19.484 53.542 21.904v35.811zM223.207 566.209c6.981 0 14.519-0.779 22.599-2.086 8.066-1.335 16.035-3.268 23.99-5.91l-5.91-38.592c-5.312 1.919-10.889 3.31-17.036 4.52s-11.946 2.086-17.731 2.086c-14.95 0-25.603-3.894-31.986-11.126s-9.735-19.178-9.735-35.811v-19.122h53.542v-34.072h-53.542v-22.947c0-11.821-1.613-22.362-4.867-31.291-3.254-8.9-8.094-15.381-14.602-19.47v-0.695h97.001l-3.477-35.115h-141.156l-1.738 34.767c8.914 4.103 15.59 10.027 19.817 17.731 4.214 7.718 6.258 16.855 6.258 27.466v29.552h-27.466v34.072h27.466v23.642c0 54.96 26.27 82.399 78.575 82.399zM619.557 566.209c9.165 0 18.19-1.085 27.466-3.129 9.276-2.058 17.565-4.84 25.033-8.692l-4.867-41.373c-6.272 3.365-13.379 6.063-21.208 7.997-7.83 1.919-15.576 2.781-23.294 2.781-15.186 0-27.133-3.532-35.811-11.126s-14.7-19.762-18.079-36.158h69.883l-3.824-30.943h-70.926c-0.236-1.21-0.348-2.837-0.348-4.52v-5.215c0-1.933 0.223-3.991 0.348-5.91 0.125-1.933 0.111-3.977 0.348-5.91h69.883l-3.477-30.943h-61.538c3.129-14.463 8.942-24.907 17.384-31.291 8.442-6.397 20.179-9.735 35.115-9.735 7.468 0 15.2 1.196 23.642 3.129 8.442 1.919 16.299 4.269 23.294 7.649l3.477-39.635c-7.232-3.616-15.729-6.397-25.728-8.692s-19.595-3.477-28.509-3.477c-29.163 0-51.553 6.884-67.101 20.86-15.548 13.963-25.102 34.42-29.205 61.191h-30.943l3.824 30.943h23.99c-0.236 1.933-0.348 3.977-0.348 5.91v10.778c0 1.558 0.111 3.185 0.348 4.867h-24.685l3.129 30.943h25.033c4.826 29.399 15.353 51.567 31.986 66.754 16.633 15.173 38.717 22.947 65.711 22.947zM374.446 523.793c-3.379-0.723-6.495-1.585-9.387-2.781-10.361-5.062-15.645-13.365-15.645-24.685 0-7.718 2.253-13.726 6.953-18.427s10.847-8.803 18.079-12.169v58.062zM391.83 413.233v-59.105c7.718 1.919 13.629 4.923 17.731 9.387 4.103 4.45 5.91 10.917 5.91 19.122 0 8.442-1.808 14.783-5.91 19.122s-10.013 8.094-17.731 11.473z" />
<glyph unicode="&#xe938;" glyph-name="international-property" data-tags="international-property" d="M511.131 883.758l-511.131-295.881 39.965-60.298 75.022 43.471v-558.808h137.423v274.145h207.537v-274.145h447.327v558.808l75.723-44.172 41.367 58.195-155.653 90.447v190.009h-131.113v-112.182l-226.468 130.412zM252.41 550.016h207.537v-161.262h-207.537v161.262zM563.716 550.016h208.238v-161.262h-208.238v161.262zM563.716 286.387h208.238v-161.262h-208.238v161.262z" />
<glyph unicode="&#xe939;" glyph-name="international-tax" data-tags="international-tax" d="M333.388 959.956l-243.418-220.499h243.418v220.499zM383.968 959.956l0.79-269.499-294.789-0.79v-753.964h844.060v1024.253h-550.062zM511.21 616.167c152.626 0 275.821-123.985 275.821-276.611 0-152.658-123.195-276.611-275.821-276.611-152.658 0-276.612 123.954-276.612 276.611 0 152.626 123.954 276.611 276.612 276.611zM485.919 570.329c-16.66-18.683-40.812-49.885-60.064-90.887 19.884-5.722 40.97-9.61 63.225-11.064v101.951c-1.075-0.096-2.118 0.126-3.161 0zM533.339 570.329v-101.951c20.106 1.739 40.875 6.228 62.435 12.645-19.062 40.085-42.614 70.623-59.274 89.306-1.075 0.096-2.086-0.096-3.161 0zM414.791 550.571c-22.73-10.401-43.562-24.31-61.645-41.097 9.547-5.343 19.537-10.401 30.032-15.016 9.705 20.991 20.833 39.864 31.613 56.113zM606.838 550.571c10.464-15.775 21.307-34.331 30.822-54.532 9.642 4.268 19.315 9.673 29.242 15.016-17.703 16.154-38.062 29.4-60.064 39.516zM697.725 477.071c-14.7-8.377-29.21-15.143-43.468-21.339 9.547-28.388 15.712-60.096 17.387-94.048h70.338c-4.078 42.898-19.948 82.478-44.258 115.387zM323.114 475.491c-23.868-32.719-39.421-71.382-43.468-113.806h70.338c1.675 33.288 8.124 63.731 17.387 91.677-16.028 6.892-31.044 14.415-44.258 22.129zM612.37 439.136c-27.471-8.441-53.805-13.183-79.032-15.016v-62.435h93.258c-1.549 28.072-6.544 53.742-14.226 77.451zM409.259 438.346c-7.461-23.393-12.677-49.063-14.226-76.661h94.048v63.225c-28.42 1.675-55.512 6.228-79.822 13.435zM279.646 317.427c4.015-42.329 19.726-81.182 43.468-113.806 14.099 8.188 30.127 16.47 47.419 23.71-11.064 31.486-17.387 61.36-19.758 90.096h-71.129zM395.823 317.427c2.213-24.026 7.555-49.664 16.597-75.871 23.457 6.734 49.442 11.855 76.661 13.435v62.435h-93.258zM533.339 317.427v-63.225c24.184-1.739 48.842-5.659 75.080-13.435 9.389 26.776 15.079 52.161 17.387 76.661h-92.467zM670.854 317.427c-2.403-29.242-8.251-60.38-19.758-92.467 15.237-6.481 30.886-13.973 46.629-22.919 24.31 32.94 40.18 72.456 44.258 115.387h-71.129zM489.081 210.734c-20.77-1.359-40.559-4.363-59.274-9.484 14.384-29.684 33.668-60.823 59.274-92.467v101.951zM533.339 210.734v-101.951c25.164 31.17 44.131 61.645 58.484 90.887-20.169 5.722-39.611 9.452-58.484 11.064zM387.13 186.234c-11.886-5.090-23.235-10.622-33.984-16.597 20.042-18.652 43.12-33.604 68.758-44.258-13.878 20.801-25.259 40.875-34.774 60.855zM633.709 184.653c-9.326-19.379-20.517-39.137-33.984-59.274 25.006 10.401 47.451 25.417 67.177 43.468-11.317 6.101-22.192 11.128-33.193 15.806z" />
<glyph unicode="&#xe93a;" glyph-name="internet-banking" data-tags="internet-banking" d="M512 960.035c-10.531 0-19.029-8.458-19.029-19.029v-99.129c0-0.324 0-0.568 0-0.885-134.18-9.743-240.299-121.698-240.299-258.443v-17.259h518.656v17.259c0 136.745-106.119 248.7-240.299 258.443 0 0.317 0 0.561 0 0.885v99.129c0 10.571-8.401 19.029-19.029 19.029zM512 736.553c24.63 0 44.696-19.636 44.696-44.254 0-24.72-20.066-44.696-44.696-44.696-24.672 0-44.696 19.976-44.696 44.696 0 24.618 20.024 44.254 44.696 44.254zM252.672 516.611v-321.283c0-143.189 116.195-259.328 259.328-259.328 143.149 0 259.328 116.139 259.328 259.328v321.283h-518.656z" />
<glyph unicode="&#xe93b;" glyph-name="investment-advice" data-tags="investment-advice" d="M0 898.827v-733.761h540.999l248.727-167.893v167.893h234.243v733.761h-1023.968zM436.089 769.906h151.758v-464.23h-151.758v464.23zM631.774 591.373h151.758v-285.697h-151.758v285.697zM240.437 502.821h151.79v-197.145h-151.79v197.145z" />
<glyph unicode="&#xe93c;" glyph-name="investment-guide" data-tags="investment-guide" d="M0 960v-832h832v832h-832zM896 896v-832h-832v-32h864v864h-32zM992 832v-864h-864v-32h896v896h-32zM352 768h128v-448h-128v448zM512 608h128v-288h-128v288zM192 512h128v-192h-128v192z" />
<glyph unicode="&#xe93d;" glyph-name="investment-risk" data-tags="investment-risk" d="M512.015 891.355l-511.941-886.711h1023.852l-511.911 886.711zM428.324 490.766h127.347v-389.579h-127.347v389.579zM592.53 340.952h127.347v-239.766h-127.347v239.766zM264.147 266.639h127.377v-165.483h-127.377v165.483z" />
<glyph unicode="&#xe93e;" glyph-name="investments" data-tags="investments" d="M748.681 7.094h275.419v536.091h-275.419v-536.091zM374.305 7.094h275.425v881.812h-275.425v-881.812zM0 7.094h275.419v368.823h-275.419v-368.823z" />
<glyph unicode="&#xe93f;" glyph-name="isa" data-tags="isa" d="M0 877.079v-85.816h378.934l-54.281 85.816h-324.653zM0 741.118v-722.197h1024.103v722.197h-1024.103zM452.342 554.494c36.493 0 73.556-9.781 95.121-18.611l-5.17-83.231c-26.495 13.853-57.586 22.229-85.816 22.229-13.166 0-24.845-1.832-32.052-5.687-11.574-4.95-15.509-13.797-15.509-24.297 0-19.887 19.467-31.349 46.527-42.391l31.018-11.89c55.265-22.118 81.163-51.882 81.163-105.977 0-86.147-62.875-119.935-138.546-119.935-33.158 0-72.48 7.108-103.393 17.577l4.136 83.748c27.035-13.271 66.082-22.229 90.985-22.229 39.701 0 55.315 9.953 55.315 32.569 0 21.543-14.45 30.701-46.010 43.425l-31.018 12.407c-44.653 17.69-82.197 48.795-82.197 110.63 0 61.268 44.959 111.664 135.444 111.664zM177.318 545.706h87.367v-372.213h-87.367v372.213zM702.036 545.706h86.333c29.847-77.853 81.994-238.587 118.384-372.213h-88.918l-17.060 72.892c-13.836-1.64-35.087-3.102-53.247-3.102-20.492 0-43.491 0.897-58.417 3.102l-16.543-72.892h-88.401c33.578 130.316 82.567 282.22 117.868 372.213zM743.91 443.347c-13.828-41.374-26.737-83.853-36.187-122.52 10.501-1.090 25.025-1.551 38.772-1.551 12.746 0 27.31 1.001 35.67 2.068-9.959 38.675-22.382 80.63-35.67 122.003h-2.585z" />
<glyph unicode="&#xe940;" glyph-name="island-commercial" data-tags="island-commercial" d="M572.235 869.647v-843.294h451.765v843.294h-451.765zM663.040 780.725h89.901v-90.88h-89.901v90.88zM843.821 778.918h89.901v-90.88h-89.901v90.88zM0 688.941v-662.588h451.765v662.588h-451.765zM90.353 599.040h89.976v-90.88h-89.976v90.88zM271.134 599.040h89.976v-90.88h-89.976v90.88zM663.040 599.040h89.901v-90.88h-89.901v90.88zM843.821 599.040h89.901v-90.88h-89.901v90.88zM90.353 418.259h89.976v-90.88h-89.976v90.88zM271.134 418.259h89.976v-90.88h-89.976v90.88zM663.040 418.259h89.901v-90.88h-89.901v90.88zM843.821 418.259h89.901v-90.88h-89.901v90.88zM270.231 239.209h90.88v-212.405h-90.88v212.405zM663.040 239.209h89.901v-90.805h-89.901v90.805zM842.918 239.209h90.805v-212.405h-90.805v212.405zM90.353 238.306h89.976v-90.805h-89.976v90.805z" />
<glyph unicode="&#xe941;" glyph-name="key-motor" data-tags="key-motor" d="M430.779 217.745l-11.83 64.886 29.313 43.12 34.765-23.586 35.416 52.16-119.518 81.15-338.991-498.917 174.4-0.558 31.192 45.949-18.296 32.313 30.478 43.389 26.88-18.232 31.883 46.977-18.046 12.266 50.917 74.905 18.026-12.212 43.409 56.389zM536.531 732.172l-29.734 20.263 55.117 80.896 264.937-180.498-55.107-80.901-29.7 20.234c-2.765 1.184-8.384 4.615-8.384 4.615zM952.296 602.357c21.115 31.055 13.039 73.329-17.992 94.414l-370.271 251.492c-31.075 21.085-73.319 13.005-94.463-18.056l-194.158-285.9c-21.071-31.050-13.029-73.329 18.041-94.409l370.281-251.497c31.060-21.076 73.334-13.005 94.409 18.056l194.154 285.9zM733.662 596.781c2.819-1.919 5.614-3.431 8.384-4.615l-205.514 140.006z" />
<glyph unicode="&#xe942;" glyph-name="limit-order-fx" data-tags="limit-order-fx" d="M0 818.888v-87.611h146.019v87.611h-146.019zM238.010 818.888v-87.611h146.019v87.611h-146.019zM475.291 818.888v-87.611h146.019v87.611h-146.019zM733.014 817.427v-87.611h137.258l-387.68-413.963-251.152 89.802-19.713-23.363-211.727-248.232 67.169-56.947 192.015 225.599 247.502-88.341 19.713 20.443 409.582 438.056 0.73-150.399h87.611l-0.73 247.502v47.456h-290.577z" />
<glyph unicode="&#xe943;" glyph-name="loans" data-tags="loans" d="M785.574 960.075v-87.544h-91.269v-83.353h91.269v-87.078h77.299v87.078h90.338v83.353h-90.338v87.544h-77.299zM326.435 662.985c-141.167 0-255.646-48.158-255.646-107.567 0-59.444 114.479-108.033 255.646-108.033 141.079 0 255.646 48.589 255.646 108.033 0 59.409-114.567 107.567-255.646 107.567zM89.881 466.477c-12.413-12.681-19.092-26.149-19.092-39.115 0-51.135 105.049-108.033 255.646-108.033 150.61 0 255.646 56.898 255.646 108.033 0 12.966-7.115 26.434-19.558 39.115-53.318-35.725-138.177-58.673-236.088-58.673-97.898 0-183.236 22.948-236.554 58.673zM89.881 337.49c-12.413-12.66-19.092-25.771-19.092-38.65 0-51.172 105.049-108.498 255.646-108.498 150.61 0 255.646 57.326 255.646 108.498 0 12.878-7.115 25.989-19.558 38.65-53.318-35.681-138.177-58.673-236.088-58.673-97.898 0-183.236 22.992-236.554 58.673zM89.881 210.831c-12.413-12.66-19.092-26.215-19.092-39.115 0-51.127 105.049-108.033 255.646-108.033 150.61 0 255.646 56.906 255.646 108.033 0 12.901-7.115 26.455-19.558 39.115-53.318-35.733-138.177-58.673-236.088-58.673-97.898 0-183.236 22.94-236.554 58.673zM89.881 83.241c-12.413-12.66-19.092-26.237-19.092-39.115 0-51.164 105.049-108.033 255.646-108.033 150.61 0 255.646 56.869 255.646 108.033 0 12.878-7.115 26.455-19.558 39.115-53.318-35.746-138.177-58.673-236.088-58.673-97.898 0-183.236 22.926-236.554 58.673z" />
<glyph unicode="&#xe944;" glyph-name="lock" data-tags="lock" d="M512 960c-139.494 0-252.602-113.055-252.602-252.602 0-100.576 58.743-187.073 143.858-227.681l-117.239-543.717h451.965l-117.239 543.717c85.026 40.609 143.858 127.105 143.858 227.681 0 139.547-113.080 252.602-252.602 252.602z" />
<glyph unicode="&#xe945;" glyph-name="magazine" data-tags="magazine" d="M659.999 960.066c-128.601-89.393-336.926-131.396-439.727-131.396-5.463 0-10.577 0.059-15.654 0-1.527-0.015-3.261 0.023-4.744 0-3.899-0.038-7.271-0.4-10.91-0.474-5.144-0.097-10.117 0.074-14.705 0-0.726-0.008-1.682 0.021-2.372 0-3.609-0.046-6.73 0.015-9.961 0-0.489 0-1.401 0-1.897 0h-0.474c-2.060 0.015-3.81-0.044-5.692 0-0.786 0-1.616-0.008-2.372 0-2.52 0.066-4.921-0.14-7.115 0v-891.788c266.654 1.875 472.279 112.474 515.624 137.563v886.095zM725.934 822.503v-157.012h63.089v-73.525h-63.089v-54.551h63.089v-73.525h-63.089v-54.551h63.089v-73.051h-63.089v-55.025h63.089v-73.051h-63.089v-172.665l-33.205-18.974c-27.847-16.143-90.446-49.733-178.832-80.64h365.728v886.57h-153.691z" />
<glyph unicode="&#xe946;" glyph-name="managing-wealth" data-tags="managing-wealth" d="M584.464 856.59l127.918-127.918-138.125-138.805 160.578-160.578 140.846 138.125 131.32-127.918v417.095h-422.539zM273.514 818.487c-144.466 0-261.28-47.058-261.28-104.784 0-57.781 116.814-104.784 261.28-104.784s261.28 47.003 261.28 104.784c0 57.727-116.814 104.784-261.28 104.784zM-0.014 622.527v-98.66c0-57.781 127.673-104.784 272.167-104.784 144.439 0 272.167 47.003 272.167 104.784v98.66c-54.433-42.213-149.746-72.805-272.167-72.805-122.529 0-217.733 30.592-272.167 72.805zM863.435 481l-137.444-138.125-127.238 127.918v-416.415h415.735l-127.918 127.918 137.444 138.125-160.578 160.578zM-0.014 432.691v-98.66c0-57.727 127.673-104.784 272.167-104.784 144.439 0 272.167 47.058 272.167 104.784v98.66c-54.433-42.213-149.746-72.805-272.167-72.805-122.529 0-217.733 30.592-272.167 72.805zM-0.014 242.854v-98.66c0-57.781 127.673-104.784 272.167-104.784 144.439 0 272.167 47.003 272.167 104.784v98.66c-54.433-42.186-149.746-72.805-272.167-72.805-122.529 0-217.733 30.619-272.167 72.805z" />
<glyph unicode="&#xe947;" glyph-name="map-uk" data-tags="map-uk" d="M649.435-1.335v0 0 0 0 0l-1.424 1.424h-2.848l-9.969 4.273h-1.424l-5.697-5.697h-1.424v1.424l-5.697-2.848-2.848-2.848-1.424-2.848 1.424 1.424h5.697l2.848-1.424 8.545-7.121 2.848-1.424 7.121 2.848v4.273l1.424 1.424h1.424l2.848 1.424v1.424l-1.424 4.273zM657.981 8.634v0 0 1.424h-1.424l-1.424-2.848h-1.424v-1.424l5.697-1.424-1.424 4.273zM400.2 48.512v0 0zM787.583 76.996v0l-9.969 2.848h-1.424l-1.424-2.848v-1.424l2.848-2.848h9.969l1.424 1.424v2.848h-1.424zM407.321 287.777v2.848l-2.848 2.848h-4.273l-1.424-1.424v-1.424l1.424-1.424h1.424v-1.424l1.424-2.848 1.424-1.424v2.848l2.848 1.424zM428.684 299.171v0 2.848l-2.848 1.424h-1.424l-4.273 1.424h-1.424l-8.545-2.848-1.424-1.424 1.424-1.424v-12.818l1.424-1.424 2.848-4.273 1.424-1.424v-4.273l2.848-1.424h1.424l1.424 2.848h2.848v-1.424l-1.424-1.424v-2.848l1.424-1.424h2.848l4.273 2.848 1.424 1.424 2.848 1.424v2.848l4.273 4.273h1.424l1.424 1.424 2.848 4.273 1.424 1.424h-5.697v-1.424h-5.697v2.848l-1.424 1.424v1.424h-1.424l-4.273 5.697zM330.414 400.289v0 0 0h1.424v2.848h1.424l2.848 2.848 2.848 5.697v4.273l-1.424 2.848-8.545-4.273 1.424 1.424 2.848 1.424v1.424l1.424 5.697v2.848h-1.424v4.273l-1.424 1.424h-4.273v7.121h1.424l7.121-7.121 1.424-2.848v-5.697l-1.424-1.424v-4.273l1.424-1.424h1.424v-4.273l1.424-1.424h1.424l1.424 1.424h1.424l-1.424 1.424v1.424l1.424 1.424v5.697l1.424 1.424v2.848l-2.848 2.848v7.121h-1.424l-1.424 1.424-1.424 4.273v2.848h-1.424l-1.424 1.424-8.545-1.424h-1.424l-1.424 1.424h-2.848l-5.697-2.848v-1.424l-1.424-2.848-1.424-1.424v-1.424h-1.424v2.848h-1.424l1.424 1.424 1.424 2.848 4.273 4.273 4.273 1.424 2.848 2.848 1.424 2.848v2.848l-1.424 4.273-2.848 2.848h-1.424l-1.424-1.424 1.425-1.425-1.424 2.848v5.697l-1.424 1.424v4.273l-4.273 4.273h-1.424v1.424l1.424 4.273v2.848l-1.424 1.424h-5.697v1.424l1.424 2.848v9.969l-2.848 2.848v1.424h-5.697l-2.848-1.424h-2.848l-7.121 4.273h-1.424l-2.848-1.424h-1.424l-2.848 1.424h-1.424l-5.697-5.697h-4.273l-8.545-4.273h-9.969l-2.848 1.424h-1.424v-7.121l-4.273-4.273v-4.273l-2.848-2.848h-7.121l-2.848 1.424h-1.424l-2.848-1.424h-1.424v2.848h-1.424v-2.848h-5.697l-1.424-1.424-1.424-2.848v-8.545h-1.424v-7.121l-2.848-5.697-5.697-5.697v-5.697h-2.848l-1.424 1.424h-4.273l-4.273-4.273-2.848-1.424h-2.848l-2.848 1.424-1.424 1.424h-1.424l-2.848-2.848-2.848-1.424 1.424-1.424v-2.848l1.424-1.424h1.424v-1.424l1.424 1.424h1.424l2.848-1.424h2.848l1.424 1.424h1.424v-2.848l-2.848-1.424-7.121-7.121-2.848-1.424h-2.848l-5.697 1.424-7.121-7.121-4.273-1.424h-1.424l1.424-1.424v-4.273l1.424-1.424 2.848-4.273 2.848-2.848h1.424l1.424-4.273 2.848-2.848h2.848l1.424-1.424v-7.121l2.848-2.848h9.969l5.697-4.273v-4.273h1.424l7.121-1.424h1.424l2.848 2.848h1.424l-1.424-1.424v-1.424h1.424l2.848-1.424h1.424l-1.424 2.848v1.424l1.424 1.424v-5.697h1.424v5.697h1.424v2.848h1.424l4.273 1.424 1.424 1.424v1.424l1.424 1.424-2.848 1.424v1.424l-2.848 1.424v4.273h1.424l2.848 1.424 2.848 5.697 1.424 1.424h2.848l2.848-1.424 4.273-4.273v-2.848h1.424v-1.424l1.424-2.848v-2.848h-1.424l2.848-1.424v-4.273l5.697-5.697h1.424v1.424h4.273l2.848-2.848v-2.848l-1.424-1.424 1.424-1.424v-1.424l-1.424-2.848 1.424-1.424 1.424-2.848h2.848l5.697 2.848h4.273v5.697l1.424 1.424v-1.424h5.697l1.424-1.424v1.424h4.273l1.424-2.848h1.424l5.697-1.424h-1.424v-1.424l1.424-1.424h5.697l2.848 2.848 1.424 2.848 2.848 1.424 2.848 2.848v14.242h2.848l2.848 1.424h2.848l19.939 11.394zM294.809 525.619v0 0l1.424 2.848v1.424h-8.545l-1.424-1.424h4.273l4.273-2.848zM353.202 575.466l-2.848-5.697v-7.121l2.848-5.697v-8.545l2.848-2.848 5.697-2.848h7.121l2.848 2.848v4.273l1.424 1.424-2.848 1.424v1.424h1.424v2.848l-2.848 2.848 1.424 1.424-1.424 5.697-2.848 5.697-1.424 1.424-4.273 2.848h-1.424v-1.424h-5.697zM375.989 585.435v0 7.121l-1.424 1.424v2.848l-1.424 2.848-1.424 1.424-2.848-1.424v-1.424l1.424-2.848v-2.848l2.848-1.424v-1.424l1.424-2.848 5.697-5.697 1.424-2.848v-1.424h1.424v4.273h-1.424l-5.697 4.273zM299.082 568.345l4.273 4.273v1.424h2.848v7.121h-1.424v4.273l-2.848 2.848v5.697l-1.424 7.121v5.697l-1.424-1.424h-4.273l-1.424-2.848-2.848-1.424-2.848-2.848-1.424-2.848v-4.273h-1.424v5.697l1.424 2.848v1.424h-2.848l-1.424-1.424-4.273-1.424-2.848-1.424v-7.121l-1.424-1.424 2.848-1.424-2.848-4.273-1.424-1.424-1.424-2.848v-1.424l1.424-1.424h1.424l4.273 4.273 2.848 1.424 1.424 1.424 1.424 4.273 1.424 1.424h2.848l1.424-1.424-2.848-2.848-1.424-2.848v-2.848l2.848-1.424 1.424-1.424 1.424-4.273-4.273-2.848-1.424-1.424v-2.848l1.424-2.848h2.848l1.424 1.424v4.273h4.273l4.273 1.424zM293.385 626.737v0 0l-2.848-2.848v-4.273l-1.424-1.424 1.424-1.424h2.848l1.424 1.424v2.848l1.424 2.848 2.848 4.273v1.424h-4.273l-1.424-2.848zM310.476 589.708v7.121h1.424l1.424 2.848h1.424l1.424 4.273 5.697 11.394 2.848 7.121 4.273 4.273v4.273l-1.424 1.424-1.424-1.424-2.848-4.273-5.697-5.697h-1.424l-1.424-1.424-4.273-8.545 1.424-1.424h2.848l2.848 1.424h1.424l-2.848-1.424-5.697-1.424-2.848-2.848h-1.424l-1.424-1.424v-9.969l1.424-2.848 2.848-1.424h1.424zM330.414 638.131v0l-2.848-1.424-2.848-2.848h1.424l2.848 1.424 1.424 1.424v1.424zM330.414 642.403l1.424-2.848v-1.424 8.545l-1.424-1.424v-2.848zM336.111 653.797v0l-1.424 1.424h-1.424l-1.424-2.848v-1.424l1.424-1.424 1.424 1.424v1.424l1.424 1.424zM340.384 662.342l1.424 1.424 1.424 2.848h-4.273l-1.424-1.424v-2.848h2.848zM293.385 672.312h4.273l-4.273 4.273h-2.848l-2.848-2.848 1.424-1.424h4.273zM249.235 675.16h1.424l1.424 1.424v1.424h4.273l1.424 1.424-1.424 2.848h-1.424l-4.273-1.424h-1.424l-2.848-1.424h-1.424l-4.273-1.424-1.424-1.424v-4.273l4.273-1.424h1.424v2.848l1.424 2.848 2.848-1.424zM303.355 693.675v0l-2.848 1.424h-4.273l-2.848-1.424-1.424-1.424v-1.424l-1.424-1.424h-4.273v-1.424l1.424-1.424v-1.424l-2.848-2.848 2.848-2.848h1.424l7.121-1.424 2.848-2.848v-1.424l1.424-2.848h1.424l4.273 2.848v-5.697h-1.424l-4.273-1.424h-2.848v-4.273l-1.424-2.848h-2.848v-4.273l1.424-1.424h1.424l2.848 1.424 4.273 2.848h1.424l-4.273-4.273-4.273-1.424-1.424-1.424h-5.697v-1.424l-1.424-1.424-4.273 4.273h-2.848l-1.424-1.424v-4.273l4.273-4.273h4.273v2.848h8.545l1.424 1.424h7.121l1.424 1.424 5.697 2.848h2.848v2.848h2.848v-2.848l-1.424-1.424 2.848-1.424h2.848l5.697 4.273 1.424 1.424v1.424h-5.697l-1.424-1.424v1.424l2.848 1.424 1.424 1.424h4.273l1.424 1.424v1.424l-1.424 1.424v1.424h1.424v2.848h-2.848v1.424l-2.848 2.848h-2.848l-1.424 2.848-1.424-1.424v1.424h-8.545v2.848l-2.848 7.121-1.424 2.848h-2.848l-1.424 7.121zM260.629 687.978h-1.424v-1.424l1.424 1.424 2.848-1.424h1.424l4.273 2.848 2.848 2.848h1.424v2.848l1.424 2.848v2.848h-2.848l-1.424-1.424h-1.424l-2.848-1.424-1.424-1.424-4.273-8.545zM205.085 732.128v0h2.848v4.273h1.424v4.273l-2.848 1.424 1.424 2.848v-2.848l-1.424-1.424h-1.424l-1.424-1.424 1.424-1.424v-2.848h-2.848l-1.424-1.424v-1.424h4.273zM290.537 743.522l-1.424 1.424-4.273 2.848h-2.848l-5.697-5.697h1.424l2.848-2.848h2.848l1.424-2.848h4.273l1.424 1.424 1.424 2.848 1.424 4.273h-1.424l-1.424-1.424zM269.174 746.37h2.848l1.424 1.424h-2.848l-1.424 1.424h-1.424l-2.848-1.424-1.424-1.424h5.697zM309.051 781.975l-1.424-1.424v-1.424l2.848-2.848 2.848 1.424v1.424l-1.424 1.424-2.848 1.424zM219.327 769.157v0l1.424 1.424 1.424 2.848v1.424l1.424 1.424h1.424v1.424h-1.424l-1.424 1.424v1.424l-1.424 1.424h-4.273l-2.848 2.848v1.424l1.424 1.424 2.848-2.848 2.848-1.424 2.848-2.848 1.424 1.424v1.424h-1.424l-2.848 1.424h-1.424v1.424h1.424l-5.697 4.273-2.848-1.424-1.424-1.424 1.424-5.697 1.424-4.273v-1.424h-1.424v-4.273l-1.424-2.848v-1.424l-1.424-1.424h2.848l1.424-1.424v-4.273l1.424-7.121v-1.424l1.424-2.848 2.848 1.424 5.697-1.424 1.424 1.424v1.424h-1.424l-4.273 4.273h-5.697v1.424h4.273l1.424-1.424 1.424 1.424v7.121l-2.848 4.273h-5.697v1.424l5.697-1.424zM219.327 800.49v0 0 0 0l-1.424 1.424-1.424-1.424h-5.697l-2.848-2.848v-2.848l1.424-1.424 5.697-2.848h1.424l5.697 1.424v2.848h-2.848v1.424h1.424l1.424 1.424h1.424v1.424l-1.424 1.424h-2.848zM303.355 784.823v0 0-1.424l1.424-1.424h1.424l1.424 1.424h1.424l1.424 1.424v1.424l-1.424 1.424v5.697l2.848 8.545v1.424l1.424-1.424v-1.424l-1.424 1.424-1.424-1.424v-2.848h-1.424l-1.424-1.424v-11.394h-4.273zM310.476 806.186v1.424l1.424 5.697v-1.424l-1.424-1.424v-4.273zM205.085 813.307v0h1.424v1.424h1.424l4.273-2.848h2.848l-1.424-1.424 1.424-1.424h4.273l1.424-1.424 1.424 1.424h4.273l1.424 2.848v2.848h-2.848l-4.273-1.424h-5.697v-2.848l2.848 2.848h1.424v-1.424h5.697l1.424 1.424 1.424 2.848-2.848-1.424h-1.424v2.848h-1.424v2.848h-1.424v1.424h2.848l1.424-1.424h1.424v-2.848h1.424l1.424 2.848 1.424 1.424v1.424l-1.424 1.424h-4.273l-1.424-1.424-1.424 1.424 1.424 1.424v2.848l-1.424 1.424h-1.424l-2.848-2.848h-1.424l1.424-1.424v-1.424h-1.424l-4.273 1.424v2.848l-5.697-5.697-1.424 1.424 1.424 1.424v-1.424l-4.273-1.424-1.424 1.424-1.424-1.424-2.848-5.697-1.424-1.424v-1.424l9.969-1.424zM296.234 816.156v0l-1.424 2.848-2.848 2.848-1.424 2.848v1.424l-1.424 1.424v2.848h-1.424v-4.273l-2.848-1.424v-7.121h2.848l-1.424-2.848-1.424-1.424v-1.424l1.424-2.848 4.273-4.273v-4.273l-5.697 7.121h-1.424l-1.424-2.848-1.424-1.424 1.424 4.273h-4.273l-2.848 2.848h-1.424l-2.848 1.424v5.697l-4.273 4.273h-1.424v-1.424l1.424-1.424v-1.424l-2.848-2.848h1.424l2.848-2.848v-2.848l-1.424 1.424h-1.424v-1.424l1.424-1.424v-2.848h-1.424l-1.424 1.424v2.848l-4.273 5.697h-1.424l-1.424-1.424v-4.273l1.424-1.424h-4.273l1.424-2.848 2.848-2.848v-4.273l2.848-2.848 5.697-2.848 1.424 1.424v1.424l-1.424 2.848v2.848h2.848v-4.273h1.424l1.424 1.424h1.424v-2.848l1.424-1.424v-1.424l-1.424-1.424h5.697l7.121-7.121h-1.424l-4.273 4.273h-2.848l-2.848-2.848v-2.848l2.848-4.273h4.273v-1.424h-1.424l1.424-2.848 1.424-1.424 1.424 1.424h4.273v-1.424l-1.424-2.848h-1.424v-1.424l9.969 2.848 1.424 1.424-1.424 1.424v-7.121l1.424-1.424h1.424v2.848l1.424 1.424v4.273l1.424 1.424-1.424 1.424v2.848h1.424l1.424-1.424 1.424-2.848v-2.848h7.121l1.424 1.424v-1.424l-7.121-2.848-1.424-1.424v-1.424l-1.424-2.848v-4.273l-1.424-2.848v-4.273h1.424l4.273 1.424 2.848 2.848 4.273 5.697v1.424l2.848 2.848v5.697h4.273l4.273 4.273v5.697l1.424 2.848h-5.697l-1.424 1.424h-1.424l-2.848-2.848h-2.848v-1.424h-1.424v2.848h-4.273l-1.424 1.424h-1.424l-1.424-1.424h-1.424v1.424l2.848 2.848v1.424h-1.424l-5.697-1.424 1.424 1.424 2.848 1.424v2.848l-2.848 2.848v2.848l1.424 1.424v2.848h-2.848l-2.848-2.848v1.424l1.424 1.424v11.394zM226.448 831.822l1.424 1.424v1.424h-1.424l-2.848-2.848h2.848zM232.145 853.185v0h1.424v2.848l2.848-1.424h1.424v2.848l-1.424 1.424-4.273-4.273v-1.424zM247.811 898.759v0 0 0 0-2.848h5.697v4.273h-1.424l-2.848 2.848h-1.424v-4.273zM230.72 884.517v0-2.848l1.424-4.273 2.848 2.848v-2.848h1.424v-1.424h-1.424v-1.424h1.424l7.121 1.424-4.273-2.848-2.848-1.424h-1.424v-1.424h-1.424l-4.273-4.273 2.848-2.848 1.424 1.424v-1.424h7.121l1.424-1.424h5.697v-1.424l-1.424-1.424-1.424 1.424h-2.848l-2.848-1.424v-1.424l2.848-2.848h-4.273l-7.121-7.121v2.848h-2.848v-4.273h1.424l4.273-5.697 2.848-4.273 1.424 1.424 4.273 2.848 5.697 5.697v2.848l2.848-2.848h1.424v2.848h4.273v2.848l-1.424 2.848h-2.848v2.848l2.848-1.424 5.697-1.424v8.545l-1.424 1.424h-1.424l-1.424 1.424-1.424 4.273-1.424 1.424 4.273 4.273v2.848h7.121v-1.424h-2.848l-2.848-1.424-1.424-1.424-1.424-2.848v-2.848l1.424-4.273v-1.424l2.848-1.424v4.273l2.848-2.848h1.424l1.424 1.424v2.848h4.273l1.424 1.424v1.424l1.424 1.424v1.424l-1.424 1.424-2.848 1.424-1.424 1.424h-1.424v1.424h1.424l7.121-1.424h1.424l4.273 4.273h-5.697v7.121h-2.848l-1.424-1.424-8.545-2.848h-2.848v1.424h1.424l4.273 1.424 1.424 1.424 1.424-1.424h1.424l2.848 2.848 2.848 1.424 1.424 1.424v1.424l-1.424 1.424-1.424 4.273h1.424l1.424-1.424h5.697l1.424-1.424h2.848v1.424l1.424 1.424v5.697h-4.273l-2.848-4.273-1.424-1.424h-2.848l-2.848 1.424-1.424 1.424h2.848v4.273l1.424 1.424v1.424h2.848v2.848l5.697 5.697v1.424h-4.273v1.424l1.424 5.697v1.424h1.424v1.424l-1.424 1.424v1.424l-2.848 5.697-1.424 1.424h-1.424l-1.424-1.424-2.848-4.273-12.818-9.969-1.424-2.848-4.273-2.848h-5.697l-7.121-7.121h1.424v-2.848l1.424-1.424v-1.424h1.424v-4.273l1.424-1.424-1.424-2.848-4.273 4.273h-1.424l-2.848-1.424v-4.273l1.424-2.848v-5.697l-1.424 1.424-2.848 5.697v1.424l-1.424 1.424-1.424 2.848v1.424h1.424v1.424l-4.273 1.424-2.848 1.424-1.424 1.424-1.424-1.424v-4.273h1.424l1.424-1.424h-7.121v-2.848l-1.424-1.424 14.242-11.394zM845.975 202.325v11.394l-2.848 5.697-1.424 5.697-2.848 5.697-17.090 12.818-8.545 4.273-21.363 5.697v-1.424h5.697l-2.848-1.424-8.545 4.273h-11.394v-1.424h-2.848l-4.273-1.424-2.848-1.424-4.273-4.273-2.848-5.697v-2.848l-4.273-4.273v-2.848h-1.424l-1.424 2.848h-5.697l-1.424-1.424-1.424 1.424-4.273 5.697-1.424 1.424h-1.424l-1.424 1.424h-1.424l-4.273-1.424h-1.424v1.424l2.848 2.848h1.424l1.424 1.424 5.697 8.545 1.424 1.424h1.424l7.121 7.121h2.848v1.424l1.424 5.697v4.273l-1.424 4.273-5.697 15.666v1.424l-4.273 4.273v1.424l-1.424 1.424v4.273l-1.424 1.424h-4.273l-7.121 5.697-2.848 4.273h-4.273l-1.424 1.424-1.424 2.848-2.848 1.424-5.697 7.121-1.424 2.848-1.424 1.424-12.818-2.848-1.424-1.424h-2.848l-1.424 1.424-2.848 1.424h-2.848l-2.848-2.848 4.273 2.848h5.697l1.424-1.424h8.545l8.545 2.848h2.848l2.848-1.424 7.121-8.545 2.848-2.848h4.273l2.848 1.424h2.848l2.848-2.848h1.424l1.424-1.424v-1.424l-1.424-4.273 1.424 1.424 1.424 4.273-1.424 4.273-12.818 18.515-7.121 11.394-1.424 2.848-1.424 7.121-1.424 2.848 1.424 4.273 1.424 2.848 5.697 2.848-2.848 2.848-8.545 2.848-1.424 1.424v4.273l-2.848 2.848h-1.424l-2.848 1.424-1.424 1.424v1.424h-1.424v5.697l-2.848 5.697-2.848 2.848-2.848 1.424-1.424 1.424v4.273l-2.848 2.848-15.666 9.969-14.242 4.273-2.848 2.848h-4.273l-2.848 2.848v-2.848h-1.424v1.424l1.424 1.424v7.121h1.424v1.424l-4.273 1.424-4.273 4.273-1.424 4.273-4.273 15.666v9.969l-1.424 1.424h-1.424v5.697l-1.424 2.848v1.424h-1.424v8.545l-1.424 1.424v9.969l-2.848 2.848v9.969l-1.424 2.848v19.939l-1.424 1.424v1.424l1.424 1.424-1.424 1.424v5.697l-4.273 2.848h-5.697v1.424h1.424v1.424l-1.424 1.424h-2.848v2.848l-1.424 1.424v1.424l-1.424 2.848-8.545 11.394-1.424 1.424-4.273 8.545-1.424 1.424h-1.424v4.273l-11.394 2.848-2.848 1.424-4.273 4.273-5.697 2.848-1.424 1.424h-1.424l-1.424 1.424h-2.848v1.424l-1.424 1.424-1.424 2.848h-1.424l-11.394 1.424h-1.424l-1.424-2.848-1.424-1.424v-1.424h-1.424l-4.273-4.273-5.697-2.848h-5.697l-1.424 1.424-12.818 1.424-2.848 2.848h-4.273l-11.394 2.848h-1.424l-4.273-1.424h-1.424v2.848h-1.424v1.424l-2.848 4.273v1.424l-4.273 2.848v1.424h2.848l4.273-4.273 5.697-2.848h5.697l11.394-2.848h5.697l5.697 2.848h7.121l1.424 1.424 1.424 4.273 1.424 1.424h2.848l4.273 4.273 4.273 2.848v2.848h4.273l4.273-2.848h2.848l4.273 2.848 2.848 1.424 1.424 1.424 1.424 2.848 4.273 4.273v1.424l-7.121 7.121h-5.697v1.424h-1.424v1.424h-1.424l2.848 2.848v5.697l-1.424 1.424h-2.848l-2.848 2.848h-1.424l-1.424-1.424v-1.424l-1.424-1.424-14.242-7.121h-2.848l-2.848-1.424h-5.697l-1.424 1.424 2.848-1.424 2.848 1.424 7.121 7.121 5.697 2.848 17.090 2.848h5.697l1.424 2.848v1.424l2.848 1.424 1.424 1.424 1.424 2.848 7.121 4.273 1.424 1.424 1.424 2.848 1.424 1.424v4.273-8.545l4.273 4.273 1.424 5.697v1.424l2.848 2.848 4.273 2.848 1.424 1.424 2.848 5.697 2.848 1.424 1.424 1.424v2.848l1.424 1.424v5.697l2.848 8.545 5.697 9.969 1.424 2.848v1.424l-1.424 1.424v5.697l1.424 7.121 4.273 11.394 1.424 2.848 7.121 7.121v1.424l1.424 2.848 2.848 4.273 1.424 1.424v1.424h-1.424v2.848h1.424l-1.424 2.848-1.424 1.424v2.848l-1.424 1.424v8.545l-5.697 7.121-1.424 1.424h-1.424l-1.424-1.424h-1.424v4.273h-8.545l-4.273-2.848h-2.848l-2.848 1.424h-1.424v-1.424h-1.424l-1.424 1.424-1.424-1.424h-2.848v-1.424l-2.848 1.424h-2.848v-1.424l-1.424 1.424h-2.848l-5.697 1.424-2.848-1.424-1.424 1.424h-2.848l-1.424 1.424h-12.818l-4.273-2.848-2.848-1.424h-2.848l-8.545 2.848-5.697 2.848h-9.969l-1.424-1.424h-2.848v-4.273l-2.848-2.848h-2.848l-2.848 1.424 1.424-2.848h-4.273l-1.424 1.424v1.424l-4.273-1.424-9.969-8.545h-8.545l-5.697-1.424h-1.424l4.273-4.273h-4.273l-2.848-2.848h-2.848v-1.424l-2.848-2.848h-4.273l2.848 2.848 1.424 2.848h-4.273v-1.424h5.697v1.424l2.848 2.848h2.848l2.848 4.273 1.424 1.424 2.848 5.697v1.424h-1.424l-2.848-1.424-2.848-2.848h-1.424l-2.848 1.424-1.424 1.424h-1.424l-2.848-1.424-2.848-2.848-2.848-1.424-8.545-8.545v4.273l4.273 4.273h1.424l1.424 1.424v2.848h2.848l4.273 1.424h2.848l5.697 4.273 2.848 1.424 1.424-1.424-1.424-1.424v-1.424h2.848l1.424 1.424 1.424 2.848 1.424 1.424 9.969 12.818v4.273h-1.424l-1.424-1.424-1.424-2.848-2.848-2.848-2.848-1.424h-2.848l1.424 1.424-1.424 1.424h-2.848l-4.273-2.848h-2.848l-4.273 2.848v-2.848h-1.424l-4.273 4.273h-1.424l-2.848-1.424h-2.848l-2.848 1.424-4.273 5.697h1.424l5.697-5.697 5.697 1.424h1.424l4.273-1.424h1.424l1.424 1.424h1.424l1.424-1.424h1.424v2.848l1.424 2.848-1.424 2.848h-4.273l-1.424 1.424v2.848l1.424-1.424h2.848v-1.424h1.424v4.273l4.273 2.848h2.848l1.424 1.424v5.697l1.424 1.424 5.697 2.848 15.666 12.818 2.848 2.848 1.424 2.848v4.273l4.273 4.273 11.394 5.697 2.848 2.848 4.273 5.697 2.848 5.697v4.273h1.424v5.697h-2.848l-2.848 2.848v2.848l1.424 2.848v1.424l1.424 1.424v1.424l1.424 2.848 1.424 1.424v1.424l1.424 2.848v2.848l-2.848 1.424-4.273-1.424h-2.848l-4.273 2.848h-2.848l-4.273-1.424h-2.848v2.848h-2.848l-1.424-2.848 4.273-4.273h1.424l-1.424-2.848h-1.424l-4.273 1.424-4.273-1.424h-1.424l-2.848 2.848h-2.848l-4.273-1.424-2.848-1.424-4.273-4.273-2.848-1.424-5.697-1.424-5.697 1.424h-1.424l-1.424 2.848-1.424-2.848v-1.424h-7.121v-1.424h-4.273v-2.848h-1.424l1.424-1.424h-1.424l-1.424 1.424h-1.424l-1.424-1.424-2.848-1.424-2.848-2.848-1.424-2.848-1.424-1.424h-1.424l4.273 8.545 1.424 1.424v2.848l-2.848 2.848-2.848 1.424h-2.848l-1.424-1.424v-4.273l-1.424-2.848-1.424-1.424h-1.424l-1.424-1.424v-1.424l-4.273-4.273h-1.424v1.424l2.848 5.697 4.273 4.273v4.273h-2.848l-1.424 1.424h-1.424l-4.273 4.273v-11.394l-1.424-1.424v8.545l-2.848 2.848-8.545 1.424-1.424-1.424v-8.545l-2.848-2.848-4.273-2.848v-4.273l4.273-4.273-4.273-2.848v-2.848h2.848v-4.273l1.424-1.424h-2.848l-4.273 2.848h-1.424v-8.545h-1.424v-4.273l1.424-1.424h1.424l1.424-2.848h2.848l1.424-1.424h1.424l1.424 1.424h1.424l4.273-1.424h-2.848l-1.424-1.424 2.848-2.848v-1.424l-4.273 4.273h-5.697l-1.424 1.424h-2.848l-1.424-1.424v-1.424l-1.424 1.424h-2.848l-2.848-1.424h-2.848l-2.848 1.424h-2.848v-2.848l2.848-4.273h1.424v-2.848l1.424-1.424h4.273v-1.424h-4.273l1.424-1.424v-1.424h-1.424v-5.697l-1.424-2.848h-2.848l-1.424-1.424-1.424 2.848-2.848 1.424-1.424-1.424 2.848-4.273v-1.424h4.273l1.424-1.424h1.424l2.848-4.273h1.424l1.424-1.424h2.848l1.424-1.424v-4.273h-1.424v-1.424h1.424l7.121-5.697v-5.697l-1.424 1.424-1.424 4.273-2.848 1.424-2.848 2.848h-1.424l-1.424 1.424h-5.697l-1.424 1.424-1.424 2.848-1.424 1.424v-4.273l4.273-1.424 7.121-7.121-5.697 1.424-2.848 1.424-1.424 2.848-1.424 1.424-2.848 1.424h-1.424v-1.424l-1.424-4.273-1.424-1.424v-1.424h-2.848l-2.848 1.424-1.424 2.848v4.273h-4.273l-1.424 1.424v-1.424l-1.424-2.848v-1.424l-1.424-1.424 5.697-5.697v-5.697l-1.424 1.424h-1.424v-1.424h-2.848l-1.424 1.424v9.969l-1.424 1.424h-4.273l-2.848-2.848v-14.242l5.697-1.424h1.424v-2.848h1.424v-1.424l-1.424-1.424h-1.424l-1.424 2.848h-1.424l-2.848-1.424v-2.848l-1.424-1.424v-2.848h4.273l1.424-1.424 1.424-2.848 1.424-1.424h2.848v-1.424l2.848-2.848 1.424 1.424h2.848l2.848-1.424 1.424-1.424v-1.424h-4.273l-5.697-1.424v-1.424h-1.424l-9.969 9.969h-2.848v-1.424h-1.424v-5.697l-1.424-2.848v-7.121h4.273l-1.424-1.424v-4.273l1.424-5.697 1.424-1.424h4.273l1.424 1.424 4.273 5.697 1.424 1.424v-5.697l-1.424-1.424h1.424l1.424-1.424h1.424l1.424 1.424 2.848 4.273 1.424 1.424h1.424v-4.273l-2.848-2.848-7.121-4.273h-1.424v1.424l-1.424-1.424-1.424-4.273v-1.424h1.424l2.848 1.424h1.424l2.848-1.424h2.848l2.848 1.424h1.424l4.273 4.273 1.424-1.424v-1.424h-1.424l-2.848-2.848v-2.848l1.424-1.424h2.848v-1.424l-2.848-1.424-2.848 1.424-2.848 2.848-2.848 1.424h-2.848l-2.848-1.424-1.424-2.848 1.424-2.848-4.273-4.273v-2.848l1.424-1.424 5.697-1.424 1.424-1.424 1.424-2.848h2.848l5.697 1.424 1.424-1.424v-1.424h-2.848v-1.424h-7.121l-4.273 4.273h-1.424l-1.424-1.424h-4.273l-1.424-1.424-2.848-4.273-1.424-1.424 1.424-1.424h1.424l1.424-1.424h4.273l1.424-1.424v-2.848h2.848l1.424-1.424h1.424l1.424 1.424h5.697v-1.424l-2.848-1.424-4.273-1.424h-4.273l-2.848 2.848-1.424 2.848v1.424h-1.424l-4.273-4.273-1.424-2.848v-2.848l-1.424-2.848-1.424-1.424 1.424-1.424v-1.424h-5.697l2.848-1.424 7.121 1.424h2.848l-2.848-2.848v-1.424l2.848-1.424h1.424l1.424 1.424h4.273l-2.848-2.848-2.848-1.424-7.121-1.424-1.424-1.424v-1.424l1.424-1.424 5.697-2.848h-4.273l-1.424-1.424h-5.697v-1.424h1.424l1.424-1.424v-2.848l-4.273 1.424-1.424 1.424v1.424h-4.273l-2.848-1.424h-1.424l-9.969-1.424-1.424-1.424-1.424-2.848v-5.697l2.848-2.848h1.424l2.848 2.848h1.424l5.697-1.424h5.697l1.424-1.424h2.848l2.848 1.424 7.121 4.273 2.848-1.424 2.848-2.848h1.424l7.121 1.424-1.424-1.424h-7.121l-4.273 2.848h-1.424l-7.121-4.273v-2.848l1.424-1.424v-1.424l-1.424 1.424-2.848 1.424h-7.121v-4.273l9.969-8.545 4.273-1.424 2.848 4.273v-2.848l-1.424-1.424 2.848-2.848h4.273l1.424-1.424 4.273 4.273 4.273 5.697 2.848 4.273 1.424 1.424h2.848l1.424 2.848h2.848l1.424 1.424 1.424 2.848 1.424 1.424v1.424h1.424v1.424h2.848l2.848 2.848v4.273h2.848v2.848l4.273 4.273-1.424-2.848-1.424-1.424-4.273-5.697v-2.848l5.697-2.848 11.394 2.848-1.424-1.424-5.697-1.424-2.848-1.424h-1.424l-2.848 1.424h-1.424l-1.424-1.424h-2.848l-1.424-1.424v-1.424l1.424-1.424v-2.848l-2.848-2.848v-1.424l-1.424-2.848v-2.848h1.424l1.424-1.424h2.848l1.424 1.424h1.424l1.424 1.424h2.848l2.848 1.424-1.424-1.424h-1.424l-4.273-4.273h-4.273l-1.424 1.424v-1.424l-2.848-5.697 1.424-1.424 1.424 2.848 1.424 1.424h1.424l1.424-4.273 1.424-1.424 1.424 1.424 7.121-1.424h2.848l1.424 1.424 1.424 2.848 4.273 4.273 1.424 2.848 1.424 1.424-2.848-5.697-4.273-5.697-1.424-1.424h-2.848l-5.697 1.424h-7.121l-2.848-1.424-1.424-2.848v-1.424h-2.848v-1.424l-1.424-4.273h1.424l2.848 1.424h1.424v-1.424l-2.848-1.424h-1.424l-1.424 1.424-1.424-1.424v-1.424l-1.424-4.273-1.424-2.848v-1.424l2.848 1.424h1.424v-2.848h-2.848l-2.848-2.848v-1.424l-1.424-1.424-2.848-5.697v-2.848l1.424 1.424 1.424 2.848 1.424 1.424h1.424v-2.848l-2.848-2.848v-7.121l-5.697-7.121-2.848-5.697v-7.121l1.424 2.848v2.848l2.848 2.848v2.848h1.424l1.424 1.424h2.848v-1.424l-7.121-11.394v-4.273l2.848 2.848v-2.848l-2.848-4.273v-5.697l1.424-1.424h1.424l1.424-1.424v-1.424h2.848l2.848 1.424 7.121 7.121-1.424-4.273-11.394-11.394v-2.848l-4.273-2.848 1.424-1.424v-2.848l-2.848-8.545v-5.697l-1.424-4.273v-9.969l-4.273-4.273v-5.697l1.424-5.697 1.424-1.424h4.273l1.424 1.424h5.697l7.121 7.121v1.424l-1.424 1.424-1.424 2.848v1.424h-1.424v1.424l2.848 2.848 1.424 4.273v5.697l1.424 2.848v2.848h2.848v2.848h-1.424v4.273l1.424 1.424v8.545l1.424 1.424 2.848 4.273 1.424 1.424 2.848 1.424 1.424 1.424v4.273l-1.424 2.848-4.273 4.273v2.848l-1.424 1.424v7.121h-1.424v7.121h4.273v4.273h1.424l5.697 8.545 8.545 5.697v1.424l1.424 4.273 2.848 2.848h5.697l4.273 4.273-1.424-2.848-5.697-2.848-2.848-2.848-2.848-5.697v-1.424l-2.848-2.848-4.273-1.424-7.121-12.818-1.424-1.424 1.424-4.273v-14.242l1.424-1.424 5.697-2.848h1.424v4.273l-1.424 2.848 1.424 2.848v5.697l1.424 1.424v-4.273l4.273-4.273h1.424v4.273l-2.848 7.121-1.424 1.424 1.424 1.424v-2.848l2.848-4.273v-5.697l1.424-2.848 1.424-1.424h4.273l1.424 1.424v7.121l1.424 1.424v4.273l-1.424 1.424h-2.848v1.424h5.697v9.969h1.424v5.697l-1.424 4.273-1.424 2.848 1.424 1.424h1.424l1.424-1.424v-7.121h1.424l1.424 1.424 4.273 8.545 1.424 1.424h1.424v-1.424l-4.273-8.545-2.848-7.121v-8.545l2.848-2.848h2.848v1.424l-4.273 8.545v4.273h1.424l1.424-4.273 4.273-4.273 2.848-1.424 2.848-4.273 2.848-1.424h2.848l7.121-1.424-1.424-1.424-11.394 1.424-1.424 1.424h-1.424l-4.273 1.424h-2.848l-2.848-1.424-1.424-1.424-1.424-2.848v-19.939l-1.424-2.848-2.848-2.848 1.424-1.424 2.848-1.424 4.273-2.848v-2.848h2.848l4.273-1.424 1.424-1.424 1.424-2.848v-2.848l-1.424-2.848 2.848-1.424 1.424-1.424v-5.697l-1.424-2.848-4.273-2.848-2.848-1.424v-7.121l-4.273-4.273v-8.545l-1.424-4.273v-1.424h-1.424l-4.273-5.697-2.848-1.424-1.424-1.424v-7.121l-1.424-2.848v-7.121l1.424-2.848v-2.848l2.848-5.697v-1.424l-1.424-1.424h-1.424l-2.848 2.848v8.545l-1.424 1.424h-2.848l-1.424-1.424v-11.394l2.848-8.545 7.121-8.545h1.424v-4.273h1.424v-5.697l-1.424-1.424v-4.273h1.424l2.848-1.424h1.424l-1.424 1.424v5.697l-1.424 1.424-2.848 5.697v15.666l5.697 5.697h4.273l1.424-2.848 1.424-1.424 2.848-1.424 8.545-5.697 2.848-2.848 4.273-5.697h2.848l1.424-1.424h4.273v7.121l1.424 1.424-1.424 1.424v4.273l-1.424 1.424h-4.273v9.969h1.424v-5.697h1.424l5.697-2.848h2.848l1.424 2.848h1.424v-4.273l2.848-4.273 2.848-2.848h2.848v2.848l2.848 2.848h1.424v-5.697h5.697l5.697 4.273 4.273 1.424-2.848 2.848 1.424 1.424v1.424l2.848 2.848v-1.424l-1.424-1.424v-1.424l4.273-1.424 1.424 2.848h9.969l1.424 1.424v8.545l1.424 2.848 1.424-1.424h8.545l22.787-1.424 5.697 1.424 1.424-1.424v-1.424h-5.697v-1.424h4.273l-1.424-1.424-5.697-1.424h-1.424l-2.848 1.424h-1.424l-4.273-1.424-2.848-2.848 2.848-1.424h1.424l-2.848-1.424h-2.848l-1.424 1.424h-2.848l-1.424-1.424-1.424-2.848-2.848-7.121v-4.273l-2.848-2.848h-2.848v-1.424l-4.273-8.545-1.424-9.969-1.424-4.273-1.424-1.424v-1.424l2.848-2.848h1.424l7.121-8.545 1.424-1.424 2.848-5.697 1.424-1.424v-8.545l1.424-1.424 1.424-2.848 2.848-4.273 1.424-1.424h5.697v7.121h1.424v-9.969l-2.848-1.424v-1.424l1.424-1.424v-5.697h4.273l2.848-2.848v4.273l2.848 2.848 2.848 5.697v7.121h2.848v-5.697l2.848-2.848h2.848l1.424 1.424v2.848l1.424 1.424 2.848 1.424 2.848 2.848v1.424-2.848l-2.848-2.848h-1.424v-1.424l1.424-1.424 1.424-2.848 1.424-1.424-1.424-2.848-1.424-1.424-2.848-1.424-1.424-1.424-1.424-2.848h-1.424v-1.424l1.424-2.848h2.848l1.424 1.424v-1.424l-2.848-2.848 1.424-1.424v-1.424l-1.424 1.424h-1.424l-5.697-2.848-2.848-2.848 1.424-2.848-1.424-8.545v-4.273l1.424-2.848 2.848-1.424h5.697l-1.424-1.424-2.848-1.424v-1.424l-4.273-4.273-4.273-7.121-1.424-1.424v-2.848l9.969-19.939 2.848-2.848 5.697-2.848h5.697v1.424h1.424l2.848 1.424h1.424v-4.273l-1.424-1.424h-7.121l-4.273 4.273-4.273 11.394-1.424 1.424h-1.424l-2.848-1.424h-5.697l-1.424-1.424v-1.424l4.273-4.273 1.424-4.273 2.848-2.848v-4.273l-2.848 2.848-8.545 5.697-1.424 1.424v1.424l-1.424 1.424-2.848 1.424h-2.848l-12.818-7.121h-12.818l-2.848 2.848h-1.424l-1.424-1.424-2.848 2.848h-2.848v-1.424l1.424-1.424v-1.424h-2.848l-7.121-2.848-2.848-1.424h-1.424l-1.424-1.424h-5.697l-2.848-2.848-1.424-2.848-1.424-1.424h-2.848l-2.848-2.848v-8.545l-4.273-2.848-1.424-2.848-5.697-4.273-1.424-1.424h-4.273l-9.969-11.394-2.848-2.848h2.848l1.424 1.424h9.969l1.424-1.424h1.424l1.424-1.424h1.424l1.424 1.424-1.424 1.424v2.848h1.424l5.697 5.697h4.273l2.848 2.848 5.697 1.424h5.697l1.424 1.424v-1.424h2.848l1.424 1.424-4.273-2.848v-7.121l-1.424-1.424h-1.424v-2.848l1.424-2.848 5.697-7.121h1.424l1.424 1.424h1.424l-4.273-4.273v-1.424l-1.424-1.424-2.848-5.697v-2.848l1.424-1.424 2.848-4.273 1.424-1.424h1.424l2.848 1.424h1.424v-1.424l-4.273-2.848h-2.848l-1.424 1.424v-5.697l-1.424-1.424-1.424-2.848v-7.121l-1.424-2.848-1.424-4.273-4.273-5.697-8.545-7.121h-5.697l-1.424-2.848-2.848-2.848h-1.424v-1.424h-9.969l-2.848-1.424v-2.848l-2.848 1.424h-1.424l-1.424-1.424-1.424-2.848-2.848-2.848h-2.848v-4.273h-1.424l-2.848 1.424h-1.424v-1.424l-1.424-1.424h-1.424l-4.273 1.424h-5.697v-1.424l1.424-1.424h-1.424v-2.848l-5.697-2.848h-2.848l-1.424-2.848h-4.273v-2.848h1.424l4.273 1.424 1.424 1.424 1.424-1.424h2.848l1.424-1.424v1.424l1.424-1.424v-8.545l-1.424-1.424h-4.273l-2.848-2.848h-2.848l2.848-2.848v-1.424h1.424l1.424 1.424v1.424h1.424l9.969-1.424h1.424l5.697 1.424 1.424 1.424v1.424l-1.424 1.424v2.848h2.848l1.424 1.424h1.424v-1.424h-2.848l-1.424-2.848v-2.848l1.424-1.424h-1.424l-1.424-1.424-5.697-2.848h-5.697v-1.424l-5.697 1.424v-1.424l1.424-1.424 2.848-1.424 1.424-2.848v-1.424l1.424-1.424 4.273-1.424h1.424v1.424h1.424v4.273l1.424 1.424h7.121l1.424 1.424 1.424-1.424 1.424 2.848v4.273l2.848 1.424h12.818l2.848 1.424-1.424 1.424v2.848h1.424v-1.424h1.424v-4.273l1.424-1.424h2.848v-1.424h-4.273l4.273-4.273h1.424l5.697 1.424h1.424l4.273-1.424h4.273l1.424 1.424v-1.424l-1.424-2.848-2.848-1.424h-2.848l-1.424-1.424v2.848l-1.424-1.424-2.848-1.424v-4.273l-1.424-1.424v-1.424h1.424l4.273-1.424h1.424v1.424h1.424l1.424 1.424h5.697v1.424h2.848v1.424l-1.424 1.424v2.848h12.818l1.424-1.424v-1.424l4.273-4.273v-4.273l4.273-4.273h2.848l4.273-2.848 1.424-2.848 2.848-2.848 17.090-1.424 4.273 1.424h2.848l1.424 1.424v2.848l-1.424 2.848h1.424v1.424l2.848 2.848h1.424l4.273 2.848v1.424l1.424 2.848v-2.848h7.121l2.848 1.424 1.424 1.424 5.697 2.848 1.424 1.424 1.424 2.848 4.273 5.697v1.424l4.273 2.848 4.273 4.273h4.273l1.424 1.424v1.424l1.424-1.424v-2.848l-1.424-1.424-2.848-1.424h-1.424l-7.121-7.121v-5.697h-1.424l-5.697-9.969-1.424-1.424h-4.273l-2.848-2.848-4.273-5.697-2.848-2.848h-2.848l-1.424-1.424 1.424-1.424v-1.424l-1.424-1.424v-4.273h-1.424l1.424-1.424v-11.394l-1.424-2.848-1.424 1.424 1.424 1.424v1.424l-1.424-1.424h-9.969l-5.697-1.424h-9.969l-1.424 1.424-8.545 1.424h-5.697l-8.545 2.848h-1.424l-2.848-1.424h-8.545l-2.848-1.424-12.818-1.424-5.697-1.424h1.424v-4.273h-2.848v-1.424l1.424-1.424v-1.424l1.424-2.848v-1.424h-1.424l-4.273-5.697-1.424-1.424h-5.697l-1.424 1.424h-7.121v-4.273l-1.424-2.848v-1.424l-1.424-4.273v-9.969l-1.424-4.273-4.273-4.273v-1.424l-5.697-5.697h-1.424v-2.848l-4.273-4.273h-8.545v-4.273l1.424-1.424 2.848-1.424 2.848-2.848h-4.273l-1.424 1.424v4.273l-1.424-1.424h-1.424l-1.424-1.424v-11.394l-4.273-2.848h-2.848v-5.697h-1.424l-2.848-1.424-8.545-8.545-2.848-1.424h-2.848v-2.848l-2.848-2.848-1.424 1.424-2.848 1.424h-1.424l-5.697-2.848-4.273-2.848-1.424-1.424-1.424-2.848v-2.848l1.424-2.848 2.848-1.424h2.848l2.848 1.424h1.424l2.848 2.848v2.848l1.424 1.424h4.273l2.848-1.424h2.848l4.273-1.424 2.848-2.848 1.424-2.848v-7.121l1.424-2.848h1.424l2.848 5.697h2.848l1.424 2.848 1.424 1.424v2.848h-4.273l2.848 1.424v4.273h1.424l-1.424 1.424 1.424 1.424v2.848h1.424l1.424-1.424v-4.273l1.424-1.424 2.848 5.697 1.424 1.424 2.848 1.424 2.848 2.848h4.273v1.424l1.424 1.424v7.121l1.424 1.424h2.848l1.424-2.848h11.394l8.545 4.273h2.848l5.697-1.424 1.424-1.424v-1.424l1.424-1.424h1.424v4.272h-1.424v1.424h2.848l-1.424 1.424h-4.273l-1.424 1.424h4.273v4.273h1.424v2.848h2.848l-2.848-2.848v-5.697h5.697l-1.424-1.424 2.848-2.848h1.424v-1.424l1.424-1.424h1.424l2.848 2.848h1.424l4.273-4.273 4.273-5.697 2.848-2.848 1.424 1.424h5.697l2.848 1.424h1.424v5.697l1.424 2.848v1.424l1.424 1.424h1.424l1.424 1.424v2.848l1.424-1.424h2.848v5.697h-4.273v2.848l1.424 1.424h2.848l-1.424 4.273v1.424l2.848 5.697 4.273 4.273v1.424l-1.424 4.273-1.424 1.424 1.424-2.848 2.848-2.848h2.848l5.697 2.848 1.424 1.424v1.424l1.424 1.424h2.848l2.848 1.424h5.697l2.848 2.848h1.424l2.848-1.424h1.424l2.848 1.424h1.424l4.273 1.424h1.424l11.394-4.273 14.242-11.394 1.424-2.848v-4.273l2.848 2.848v1.424h-1.424v4.273l1.424 2.848 1.424 1.424 2.848 1.424h1.424l2.848-1.424 12.818-1.424 5.697-2.848h8.545v1.424l2.848 2.848h-1.424v2.848h-4.273l-1.424 1.424-1.424 2.848h-4.273l2.848 4.273v-1.424h1.424l2.848-1.424v-2.848h1.424l4.273 4.273h8.545l2.848 1.424h2.848l4.273-1.424 1.424-1.424h1.424l2.848 4.273h15.666v2.848l-7.121 7.121h-1.424l-1.424 1.424h1.424l7.121-4.273 2.848-2.848h1.424l2.848-1.424 1.424-1.424 2.848-1.424v-1.424l1.424-1.424h2.848l1.424 1.424v4.273l-2.848 1.424h7.121v-1.424l-1.424-1.424v-1.424l1.424-1.424h1.424l1.424 1.424v2.848l1.424 1.424h7.121v-1.424h2.848l1.424-1.424-2.848-2.848v-1.424l5.697-4.273h1.424l1.424 1.424v4.273l11.394 4.273h11.394l8.545 2.848 2.848-1.424 1.424 1.424h2.848l12.818-4.273h5.697l1.424-1.424h4.273l2.848-1.424h4.273l2.848 4.273 2.848 1.424v1.424l1.424 1.424 2.848 1.424 15.666 2.848 2.848 1.424 7.121 7.121 2.848 1.424 4.273-1.424 5.697-1.424 2.848 1.424-1.424 4.273v4.273l2.848 5.697 4.273 4.273h7.121v2.848h4.273l1.424 1.424 4.273 1.424 2.848 5.697v8.545l-1.424 2.848v4.273h2.848v4.273l-1.424 1.424-22.787-1.424-8.545-2.848-14.242 1.424-4.273 4.273v1.424h-1.424v-4.273l-2.848 1.424h-5.697v1.424l1.424 1.424h2.848l2.848 1.424h5.697v1.424l-2.848 2.848-11.394 1.424-4.273-1.424v-2.848l-4.273-1.424h4.273l1.424 1.424v4.273l4.273 1.424h1.424l1.424-1.424 1.424 1.424h4.273l1.424 1.424h2.848l5.697-1.424 2.848 1.424h1.424l2.848 1.424 2.848 2.848 1.424 2.848h-1.424l1.424 1.424v4.273h1.424v8.545l-1.424 1.424h-1.424l-2.848-2.848-4.273-1.424-1.424-1.424-1.424 1.424h-4.273l1.424 1.424 2.848 1.424h5.697l1.424 1.424h1.424v2.848l1.424 1.424 2.848 1.424 1.424 1.424v1.424l2.848-2.848 1.424-2.848h1.424l4.273 1.424 2.848 1.424 4.273 2.848 5.697 5.697v1.424l-1.424-1.424h-5.697l5.697 5.697v1.424l-1.424-1.424-11.394 1.424-1.424 1.424h1.424l2.848 1.424h1.424l1.424-1.424h7.121v1.424h-1.424l-2.848 1.424-4.273 4.273v1.424h1.424l2.848-2.848h1.424l4.273-5.697h1.424l1.424 1.424 4.273 5.697 1.424 2.848v4.273l1.424-1.424 1.424 1.424 5.697 2.848v1.424l1.424 2.848v1.424l1.424 4.273v11.394l2.848 2.848 2.848 4.273 2.848 8.545v2.848l1.424 5.697 1.424 1.424v1.424l-25.636-14.242z" />
<glyph unicode="&#xe948;" glyph-name="mobile-banking" data-tags="mobile-banking" d="M744.327 180.060h-464.707v665.438h464.707v-665.438zM512.031 7.916c-25.291 0-45.878 20.603-45.878 45.903 0 25.23 20.587 45.817 45.878 45.817 25.175 0 45.802-20.587 45.802-45.817 0-25.3-20.627-45.903-45.802-45.903zM165.171 960.019v-1024.038h693.659v1024.038h-693.659z" />
<glyph unicode="&#xe949;" glyph-name="moneymanager" data-tags="moneymanager" horiz-adv-x="1025" d="M488.955 960c-239.961-10.919-440.783-188.963-480.939-425.832l227.444-28.055c25.402 122.778 128.541 213.988 253.495 224.438v229.448zM536.548 960v-229.448c146.027-12.102 259.507-134.785 259.507-282.051 0-52.030-14.154-103.075-41.080-147.288l185.863-134.763c57.44 86.004 84.164 176.064 84.164 282.051 0 275.524-213.996 499.187-488.454 511.499zM2.004 487.076c-9.746-117.572 17.558-222.521 83.162-320.626l185.362 134.763c-26.85 44.164-41.080 95.242-41.080 147.288 0 3.743 0.297 7.342 0.501 11.022l-227.945 27.554zM298.082 263.139l-185.362-134.763c28.744-36.509 59.663-65.879 99.194-94.685 88.156-63.953 192.015-97.691 300.587-97.691 154.732 0 303.857 71.773 400.282 192.376l-185.362 134.763c-54.114-62.584-131.757-98.192-214.419-98.192-82.559 0-160.908 35.608-214.92 98.192z" />
<glyph unicode="&#xe94a;" glyph-name="money-secure" data-tags="money-secure" d="M512.755 471.714c-80.735 0-146.122-26.163-146.122-58.449 0-32.163 65.388-58.367 146.122-58.367 80.653 0 146 26.204 146 58.367 0 32.286-65.347 58.449-146 58.449zM512.020 109.714c-68.449 0-127.429 17.102-148.367 40.653v-55.306c0-32.245 67.673-58.327 148.367-58.327 80.612 0 148.327 26.082 148.327 58.327v55.306c-21.224-23.551-79.959-40.653-148.327-40.653zM512.020 215.837c-68.449 0-127.429 16.98-148.367 40.612v-55.347c0-32.163 67.673-58.367 148.367-58.367 80.612 0 148.327 26.204 148.327 58.367v55.347c-21.224-23.633-79.959-40.612-148.327-40.612zM512.020 321.796c-68.449 0-127.429 17.143-148.367 40.694v-55.265c0-32.245 67.673-58.367 148.367-58.367 80.612 0 148.327 26.122 148.327 58.367v55.265c-21.224-23.551-79.959-40.694-148.327-40.694zM512.020 857.184c-99.878 0-180.98-80.776-181.265-180.571l0.122-99.143h362.531l-0.122 99.143c-0.286 99.796-81.347 180.571-181.265 180.571zM150.429 577.469h77.592l-0.122 99.143c0.286 156.408 127.388 283.51 284.122 283.51 156.694 0 283.878-127.102 284.082-283.51v-99.143h77.469v-641.469h-723.143v641.469z" />
<glyph unicode="&#xe94b;" glyph-name="mortar-board" data-tags="mortar-board" d="M514.691 698.755l-160.135-44.407 199.832-61.228-119.765-31.623-201.177 59.209-233.474-65.265 512.7-148.024 511.354 140.622-509.336 150.715zM204.515 450.479l-1.346-155.425c0 0 266.712-217.352 614.298-4.037l1.346 154.752-306.812-84.777-307.485 89.487z" />
<glyph unicode="&#xe94c;" glyph-name="mortgages" data-tags="mortgages" d="M510.859 883.705l-510.859-296.269 40.115-59.931 74.913 43.498v-558.707h792.146v558.707l75.88-43.981 41.081 57.997-155.626 90.379v189.941h-130.494v-112.128l-227.156 130.494zM512.309 602.901c79.951 0 144.51-65.021 144.51-144.993 0-52.484-27.835-98.377-69.597-123.728l59.447-231.023h-269.204l59.931 231.023c-41.859 25.351-70.080 71.244-70.080 123.728 0 79.972 65.021 144.993 144.993 144.993z" />
<glyph unicode="&#xe94d;" glyph-name="multi-currency" data-tags="multi-currency" d="M886.577 726.38v-32.196c0-17.703-0.379-32.196-0.785-32.196-4.387 0-23.038-2.944-32.196-4.712-51.716-9.984-86.23-37.954-96.589-78.528-5.19-20.329-3.461-51.048 3.926-70.675 6.954-18.474 19.040-35.156 35.337-47.117 15.797-11.593 32.226-19.596 63.607-31.411l10.994-3.926v-150.773h-9.423c-17.57 0.016-45.978 4.058-65.178 9.423-4.426 1.237-12.522 3.838-18.847 6.282s-11.664 4.862-11.779 4.712c-0.216-0.282-3.756-39.409-3.926-43.975-0.095-2.559 0.422-2.75 14.92-7.067 15.001-4.467 33.624-8.632 49.472-10.994 7.48-1.115 39.445-3.926 43.975-3.926 1.072 0 0.785-4.936 0.785-29.84v-29.84h21.202v60.466l10.994 1.571c37.81 3.944 69.028 17.408 90.307 38.479 19.919 19.724 29.085 44.174 29.055 80.098-0.023 26.538-3.981 41.906-14.92 58.896-5.423 8.423-17.52 20.073-27.485 26.699-16.676 11.089-46.379 25.338-62.822 29.84-4.917 1.346-9.594 2.162-10.209 2.356-0.881 0.278-0.785 16.372-0.785 75.387v74.601l4.712-0.785c2.582-0.267 7.845-0.5 11.779-0.785 16.397-1.191 39.396-5.889 58.11-12.564 5.506-1.964 9.328-4.049 9.423-3.926 0.559 0.713 5.161 45.048 4.712 45.546-0.952 1.056-22.031 6.909-36.908 10.209-16.453 3.649-28.539 5.498-40.049 6.282-4.426 0.302-9.102 0.559-10.209 0.785l-1.571 0.785v62.822h-19.632zM560.687 665.914c-20.309-0.085-40.406-3.096-57.325-8.638-22.71-7.439-39.22-17.217-56.54-34.552-13.642-13.654-22.273-25.659-30.626-43.19-9.794-20.554-16.924-44.983-21.202-73.031l-0.785-3.926h-21.988c-12.25 0-21.958-0.416-21.988-0.785s-0.717-7.469-1.571-15.706l-1.571-14.92h44.761l-0.785-4.712c-0.99-6.158-0.994-48.363 0-54.969l0.785-5.497h-47.117l-0.785-2.356c-0.234-1.106-0.249-6.418-0.785-12.564s-1.337-12.243-1.571-13.35l-0.785-2.356h26.699c14.516 0 25.914 0.136 25.914 0s1.115-6.276 2.356-13.35c5.586-31.844 14.775-55.575 28.27-76.172 7.768-11.856 23.173-27.795 33.767-34.552 22.447-14.317 50.218-22.525 84.81-24.344 33.725-1.773 63.979 3.051 90.307 13.35 5.886 2.302 10.838 3.771 10.994 3.926 0.284 0.284-4.366 45.997-4.712 46.331-0.103 0.098-3.673-1.439-7.853-3.141-10.625-4.326-19.527-7.022-32.982-9.423-9.939-1.774-14.933-2.366-32.982-2.356-23.621 0.013-31.327 1.143-47.902 7.067-24.93 8.91-42.516 26.788-53.399 54.184-2.256 5.678-10.187 35.24-10.209 37.693-0.003 0.369 25.982 0.785 58.11 0.785h58.896l0.785 13.35c0.835 7.007 2.087 13.568 2.356 14.92l0.785 2.356h-125.644l-0.785 7.853c-1.301 10.146-1.298 42.318 0 51.043l0.785 6.282h64.393l65.178 0.785 1.571 12.564c0.841 6.884 1.327 13.322 1.571 14.92l0.785 3.141h-64.393c-50.861 0-64.398-0.098-64.393 0.785 0.004 0.615 1.428 7.353 3.141 14.92 12.957 57.222 36.998 85.238 83.239 94.233 10.324 2.008 43.13 1.826 54.969 0 12.19-1.88 23.65-4.739 32.982-8.638 5.909-2.469 9.197-3.088 9.423-2.356 1.006 3.259 5.298 46.567 4.712 47.117-1.209 1.133-17.025 7.41-23.558 9.423-17.507 5.396-37.802 7.939-58.11 7.853zM164.908 665.129c-20.913-1.417-39.797-5.638-54.969-13.35-35.183-17.883-53.341-51.454-57.325-104.442-0.497-6.614-1.571-26.617-1.571-43.975v-31.411h-49.472v-35.337h50.258l-0.785-42.405c-0.456-45.488-0.605-48.703-5.497-63.607-1.3-3.962-4.040-11.28-6.282-15.706-5.032-9.933-15.538-20.466-27.485-28.27l-7.853-5.497v-12.564c0.325-7.189 1.26-17.733 1.571-22.773l0.785-8.638h116.221c64.1 0 116.998 0.416 117.006 0.785s0.596 8.179 1.571 17.276c0.974 9.097 1.57 17.201 1.571 18.061 0.002 1.479-5.099 1.571-87.951 1.571h-87.166v21.202l7.067 5.497c3.878 2.952 8.474 6.611 10.209 8.638 4.241 4.954 9.883 16.82 12.564 25.914 4.497 15.25 5.081 22.737 5.497 62.822l0.785 37.693h97.374v35.337h-98.16l0.785 36.123c0.359 27.972 0.441 38.068 1.571 43.975 9.072 47.456 34.194 65.98 87.166 65.963 18.91-0.006 30.269-0.998 43.19-4.712 5.532-1.59 10.183-2.641 10.209-2.356s1.267 10.186 3.141 21.988c1.874 11.802 3.254 21.064 3.141 21.202-0.394 0.489-12.464 3.694-20.417 5.497-22.697 5.146-45.835 6.914-66.748 5.497zM886.577 618.012v-71.46c0-56.303-0.686-70.708-1.571-70.675-2.411 0.090-31.163 15.396-38.479 20.417-9.523 6.536-18.699 15.282-22.773 21.988-10.215 16.816-11.655 41.254-3.141 59.681 9.342 20.22 24.727 31.010 52.613 36.908 4.917 1.040 9.887 2.104 10.994 2.356l2.356 0.785zM892.859 419.337c1.565 0 28.063-13.003 33.767-16.491 18.139-11.092 27.152-21.112 31.411-36.123 1.807-6.367 2.354-10.014 2.356-22.773 0.002-16.669-1.127-21.715-6.282-32.196-7.846-15.95-22.825-25.894-48.687-32.982-6.257-1.715-11.911-3.141-12.564-3.141-0.98 0-0.785 12.181-0.785 71.46 0 40.541 0.345 72.245 0.785 72.245z" />
<glyph unicode="&#xe94e;" glyph-name="multi-manager" data-tags="multi-manager" d="M540.66 959.578l-5.348-96.185c220.019-12.156 392.346-194.436 392.346-415.017 0-82.245-23.967-161.815-69.37-230.029l80.141-53.402c55.966 84.026 85.564 182.094 85.564 283.432 0 271.735-212.317 496.234-483.333 511.202zM480.252 959.428c-236.549-14.499-435.712-194.713-473.617-428.575l95.13-15.441c30.748 189.771 192.372 336.050 384.362 347.831l-5.875 96.185zM451.028 667.108v-391.668h120.513v391.668h-120.513zM601.669 516.467v-241.026h120.513v241.026h-120.513zM0.459 470.596c-0.312-7.375-0.452-14.751-0.452-22.22 0-100.713 29.245-198.18 84.585-281.925l80.367 53.101c-44.904 67.934-68.617 147.048-68.617 228.824 0 6.125 0.127 12.153 0.377 18.152l-96.26 4.067zM300.386 456.21v-180.77h120.513v180.77h-120.513zM195.314 179.18l-73.362-62.441c97.526-114.619 239.719-180.318 390.086-180.318 150.335 0 292.41 65.686 389.935 180.242l-73.287 62.441c-79.183-93.026-194.624-146.348-316.648-146.348-122.087 0-237.509 53.335-316.724 146.423z" />
<glyph unicode="&#xe94f;" glyph-name="newspaper" data-tags="newspaper" d="M573.546 656.886h-489.077v-336.25h489.077v336.25zM940.359 656.886h-122.277v-641.925h122.277v641.925zM756.952 656.886h-122.268v-641.925h122.268v641.925zM206.741 259.502h-122.268v-244.541h122.268v244.541zM390.135 259.502h-122.26v-244.541h122.26v244.541zM573.546 259.502h-122.268v-244.541h122.268v244.541zM940.359 840.271h-855.886v-122.247h855.886v122.247zM1024.002-25.789h-1024.004v947.578h1024.004v-947.578z" />
<glyph unicode="&#xe950;" glyph-name="office" data-tags="office" d="M87.614 960v-983.235h-32.854v-40.644h914.479v40.644h-37.257v983.235h-844.369zM186.852 876.342h171.041v-160.542h-171.041v160.542zM426.31 876.342h171.38v-160.542h-171.38v160.542zM666.107 876.342h171.041v-160.542h-171.041v160.542zM186.852 659.577h171.041v-160.542h-171.041v160.542zM426.31 659.577h171.38v-160.542h-171.38v160.542zM666.107 659.577h171.041v-160.542h-171.041v160.542zM186.852 452.972h171.041v-160.542h-171.041v160.542zM426.31 452.972h171.38v-160.542h-171.38v160.542zM666.107 452.972h171.041v-160.542h-171.041v160.542zM186.852 234.175h171.041v-160.542h-171.041v160.542zM426.31 234.175h171.38v-240.474h-171.38v240.474zM666.107 234.175h171.041v-160.542h-171.041v160.542z" />
<glyph unicode="&#xe951;" glyph-name="online-portfolio-service" data-tags="online-portfolio-service" d="M0 899.765v-752.941h1024v752.941h-1024zM90.353 809.412h843.294v-572.235h-843.294v572.235zM451.765 688.941v-361.412h120.471v361.412h-120.471zM602.353 568.471v-240.941h120.471v240.941h-120.471zM301.176 508.235v-180.706h120.471v180.706h-120.471zM301.176 86.588v-60.235h-90.353v-90.353h602.353v90.353h-90.353v60.235h-421.647z" />
<glyph unicode="&#xe952;" glyph-name="other-services" data-tags="other-services" d="M498.518 959.914c-23.855-4.917-42.032-26.203-42.032-51.549 0-10.976 9.517-19.129 9.517-29.343 0-94.691-250.607-396.53-250.607-396.53l99.926-304.535h393.358l99.926 304.535c0 0-250.607 301.839-250.607 396.53 0 10.215 9.517 18.367 9.517 29.343 0 25.346-18.145 46.632-42.032 51.549v-408.426c24.141-5.805 42.032-27.186 42.032-53.135 0-30.39-25.092-55.514-55.514-55.514s-54.721 25.124-54.721 55.514c0 25.6 17.574 46.981 41.239 53.135v408.426zM315.321 112.925v-176.853h390.979v176.853h-390.979z" />
</font>
</defs>
</svg>
